Доктор Стрэндж

Лицензия

Добыча

Дубляж

Уэнсдэй

1 сезон

Тор

Дубляж

В эфире

Дубляж

Там, где раки поют

MVO

Властелин колец

1 сезон

Deluxe

pack

Рекомендуем

30

Пиратка

ВАЖНО

ВАЖНО

Ghostwire

Пиратка

jed

RePack

nioh2

RePack

RDR2

RePack

NEED FOR SPEED™ PAYBACK

RePack

скачать торрент

Кинопоиск HD

Острые козырьки 6 сезон

6 сезон

FAR CRY 6

RePack

скачать торрент

Лицензия

скачать торрент

MVO

1

1 сезон

скачать торрент

1 сезон

скачать торрент

Лицензия

  

Эксперимент «Офис» 2 / Погром / Mayhem (Джо Линч) [2017, Ужасы, боевик, комедия, BD Remux 1080p] MVO [Лицензия / iTunes]

Эксперимент «Офис» 2 через торрент pb.wtf

Размер: 15.45 GB | Добавлен: 4 года 10 мес. назад | Торрент скачан:116 раз
Смотреть онлайн | Скачать   

16-01-2018 01:40 Эксперимент «Офис» 2 Скачать торрент  

Эксперимент «Офис» 2 / Погром / MayhemГод выпуска: 2017
Страна: США
Жанр: Ужасы, боевик, комедия
Продолжительность: 01:27:34
Перевод: Профессиональный многоголосый [Лицензия / iTunes]
Субтитры: Английские

Режиссер: Джо Линч

rating

В ролях:

Стивен Юн, Самара Уивинг, Стивен Брэнд, Кэролайн Чикези, Керри Фокс, Даллас Робертс, Марк Фрост, Клер Левин, Андре Эриксен, Никола Кент

Описание:

На человечество обрушился вирус ID7. Заражённые не могут себя контролировать. На 8 часов они оказываются во власти инстинктов: ярости, похоти, страха.
Дерек упорно работал, чтобы добиться высокого положения в крупной фирме. Босс его подставил и уволил с позором. Именно в этот момент в офис попадает вирус ID7. Прекрасный шанс оторваться и восстановить справедливость.

Качество: BD Remux 1080p
Формат: MKV

Видео: AVC/H.264, 1920x1080, ~22.8 Mbps, 23.976 fps
Аудио#1: AC3, 6 ch, 384 Kbps - Русский
Аудио#2: DTS-HD MA, 6 ch, 2048 Kbps - Английский
скриншот  скриншот  скриншот  скриншот  

General
Unique ID : 223020205651713404604356565001502611523 (0xA7C8211501FE7FA789341F21B3565843)
Complete name : Mayhem.2017.REMUX.mkv
Format : Matroska
Format version : Version 4 / Version 2
File size : 15.5 GiB
Duration : 1 h 27 min
Overall bit rate mode : Variable
Overall bit rate : 25.3 Mb/s
Encoded date : UTC 2018-01-16 00:02:54
Writing application : mkvmerge v17.0.0 ('Be Ur Friend') 64-bit
Writing library : libebml v1.3.5 + libmatroska v1.4.8

Video
ID : 1
Format : AVC
Format/Info : Advanced Video Codec
Format profile : [email protected]
Format settings, CABAC : Yes
Format settings, RefFrames : 4 frames
Codec ID : V_MPEG4/ISO/AVC
Duration : 1 h 27 min
Bit rate mode : Variable
Bit rate : 22.8 Mb/s
Maximum bit rate : 36.0 Mb/s
Width : 1 920 pixels
Height : 1 080 pixels
Display aspect ratio : 16:9
Frame rate mode : Constant
Frame rate : 23.976 (24000/1001) FPS
Color space : YUV
Chroma subsampling : 4:2:0
Bit depth : 8 bits
Scan type : Progressive
Bits/(Pixel*Frame) : 0.460
Stream size : 14.0 GiB (90%)
Language : English
Default : Yes
Forced : No

Audio #1
ID : 2
Format : AC-3
Format/Info : Audio Coding 3
Format settings, Endianness : Big
Codec ID : A_AC3
Duration : 1 h 27 min
Bit rate mode : Constant
Bit rate : 384 kb/s
Channel(s) : 6 channels
Channel positions : Front: L C R, Side: L R, LFE
Sampling rate : 48.0 kHz
Frame rate : 31.250 FPS (1536 SPF)
Bit depth : 16 bits
Compression mode : Lossy
Stream size : 241 MiB (2%)
Title : MVO | iTunes
Language : Russian
Service kind : Complete Main
Default : Yes
Forced : No

Audio #2
ID : 3
Format : DTS
Format/Info : Digital Theater Systems
Format profile : MA / Core
Mode : 16
Format settings, Endianness : Big
Codec ID : A_DTS
Duration : 1 h 27 min
Bit rate mode : Variable / Constant
Bit rate : 2 048 kb/s / 1 509 kb/s
Channel(s) : 6 channels
Channel positions : Front: L C R, Side: L R, LFE
Sampling rate : 48.0 kHz
Frame rate : 93.750 FPS (512 SPF)
Bit depth : 24 bits
Compression mode : Lossless / Lossy
Stream size : 1.24 GiB (8%)
Language : English
Default : No
Forced : No

Text
ID : 4
Format : UTF-8
Codec ID : S_TEXT/UTF8
Codec ID/Info : UTF-8 Plain Text
Duration : 1 h 22 min
Bit rate : 67 b/s
Count of elements : 1307
Stream size : 40.8 KiB (0%)
Language : English
Default : No
Forced : No

Menu
00:00:00.000 : en:Chapter 01
00:10:06.188 : en:Chapter 02
00:19:52.566 : en:Chapter 03
00:34:24.896 : en:Chapter 04
00:39:10.056 : en:Chapter 05
00:56:05.278 : en:Chapter 06
01:04:28.573 : en:Chapter 07
01:13:04.838 : en:Chapter 08
01:18:09.601 : en:Chapter 09
01:23:36.428 : en:Chapter 10
01:27:34.123 : en:Chapter 11




Скачать Эксперимент «Офис» 2 через торрент http://a.radikal.ru/a04/1801/e7/e54db8dba7bc.jpg Скачать, смотреть онлайн Эксперимент «Офис» 2 бесплантно в хорошем качестве Описание: На человечество обрушился вирус ID Заражённые не могут себя контролировать. На 8 часов они оказываются во власти инстинктов: ... 10 10 4
Info! Золотая раздача, скачанное не засчитывается.
Торрент: Зарегистрирован [2018-01-16 01:40] · скачан: 116 раз
Статус: √ проверено
Размер: 15.45 GB
Как cкачать? Как скачать Эксперимент «Офис» 2 через торрент | UTorrent

% Раздел Тема Автор DL S | L
Ultra HD (UHD: 2K, 4K, 8K) [ 45.05 GB ] Эксперимент «Офис» 2 / Погром / Mayhem | Лицензия | 2160p bober100 Скачать
1 | 0
Фильмы 2017 [DVDrip, WEB-DLRip, HDrip] (DUB, MVO) [ 1.42 GB ] Эксперимент «Офис» 2 / Погром / Mayhem | Лицензия | BDRip Twi7ter Скачать
1 | 0
Фильмы [HD 720p, 1080p] (Хороший звук DUB, MVO) [ 5.49 GB ] Эксперимент «Офис» 2 / Погром / Mayhem | Лицензия | 1080p bober100 Скачать
1 | 0
Фильмы [HD 720p, 1080p] (Хороший звук DUB, MVO) [ 4.8 GB ] Эксперимент «Офис» 2 / Погром / Mayhem | Лицензия | 720p bober100 Скачать
1 | 0
Фильмы 2017 [DVDrip, WEB-DLRip, HDrip] (DUB, MVO) [ 1.42 GB ] Эксперимент «Офис» 2 / Погром / Mayhem | Лицензия | BDRip bober100 Скачать
1 | 0
Фильмы 2017 [DVDrip, WEB-DLRip, HDrip] (DUB, MVO) [ 1.53 GB ] Эксперимент «Офис» 2 / Погром / Mayhem | iTunes | BDRip-AVC Enigma2010 Скачать
1 | 0

28-11-2019 20:33  


Отключить вcю реклaмy на сайте, в т.ч. и в плеере онлайн просмотра!

    Дорогой пользователь! Огромная просьба, поблагодарите релизера, оцените раздачу и оставьте свои комментарий, если Вы скачали Эксперимент «Офис» 2 через торрент бесплатно!!
    Комментировать посты могут только пользователи прошедшие не сложную регистрацию
    Показать сообщения:    


    Эксперимент «Офис» 2 через торрент
    Скачать бесплатно Эксперимент «Офис» 2
    Эксперимент «Офис» 2 скачать торрент
    Эксперимент «Офис» 2 смотреть онлайн
    Cкачать фильм Эксперимент «Офис» 2 бесплатно
    Эксперимент «Офис» 2 скачать торрент в хорошем качестве
    Эксперимент «Офис» 2 смотреть онлайн бесплатно в хорошем качестве
    Вы не можете начинать темы
    Вы не можете отвечать на сообщения
    Вы не можете редактировать свои сообщения
    Вы не можете удалять свои сообщения
    Вы не можете голосовать в опросах
    Вы не можете прикреплять файлы к сообщениям
    Вы можете скачивать файлы
    Эксперимент «Офис» 2 / Погром / Mayhem [2017, Ужасы, боевик, комедия, BD Remux 1080p] MVO [Лицензия / iTunes] смотреть онлайн, скачать торрент picoco.icu