Ссылка на приватное зеркало всего за 1$. Внимание количество ограничено!!!

OK

1+1

iTunes

мы

OK

1

WEB-DLRip

Джокер

Пифагор

Ведьмак / The Witcher сериал

iTunes

ПШазам

ОК

Оно 2

iTunes

30
pack

Вам бонус

ВАЖНО

!!Акция!!

Alien_RageХит недели

RePack

Resident Evil 21

ИГРА 18+

pack

RePack

jed

RePack

fifa19

RePack

Assassins Creed: Odyssey

RePack

NEED FOR SPEED™ PAYBACK

4 сезон

9 сезон

Бесстыжие 9 сезон

Все сериалы

все сериалы на PB.wtf

RePack

FAR CRY 5
  

Похищены и проданы / Trafficked (Уилл Уоллес) [2017, триллер, драма, WEB-DL 720p] MVO ["Синема УС"] pb.wtf

Похищены и проданы через торрент pb.wtf

Размер: 3.42 GB | Добавлен: 2 года назад | Торрент скачан:106 раз
Скачать  

16-01-2018 02:20 Похищены и проданы Скачать торрент  

Похищены и проданы / TraffickedГод выпуска: 2017
Страна: США
Жанр: триллер, драма
Продолжительность: 01:40:46
Перевод: Любительский (многоголосый) ["Синема УС"]
Субтитры: отсутствуют

Режиссер: Уилл Уоллес

rating

В ролях:

Элизабет Рём, Эшли Джадд, Брайан Томпсон, Амайя Миллер, Шон Патрик Флэнери, Патрик Даффи, Энн Арчер, Джейсон Лондон, Эфрен Рамирез, Кортни Гейнс

Описание:

Фильм снятый по мотивам реальных событий, повествует о трёх девушках из Нигерии, Индии и США, которые через глобальную сеть торговли живым товаром попали в Техас и стали секс-рабынями и об их дерзкой попытке вырваться на свободу.

Качество: WEB-DL 720p
Формат: MKV
Видео кодек: H.264
Аудио кодек: AC3

Видео: 4478 Кбит/с, 1280x548
Аудио#1: AC3, 2 ch, 384 Кбит/с

скриншот  скриншот  скриншот  

Общее
Уникальный идентификатор : 183006953417420292782754510244002941142 (0x89ADDB6EF4251E8283BA7A534F2848D6)
Полное имя : D:\Trafficked.2017.P.WEB-DL.72Op_KOSHARA.mkv
Формат : Matroska
Версия формата : Version 2
Размер файла : 3,42 Гбайт
Продолжительность : 1 ч. 40 м.
Режим общего битрейта : Переменный
Общий поток : 4863 Кбит/сек
Дата кодирования : UTC 2018-01-14 14:49:19
Программа кодирования : mkvmerge v8.3.0 ('Over the Horizon') 64bit
Библиотека кодирования : libebml v1.3.1 + libmatroska v1.4.2

Видео
Идентификатор : 1
Формат : AVC
Формат/Информация : Advanced Video Codec
Профиль формата : High@L4.1
Параметр CABAC формата : Да
Параметр ReFrames формата : 11 кадров
Идентификатор кодека : V_MPEG4/ISO/AVC
Продолжительность : 1 ч. 40 м.
Вид битрейта : Переменный
Битрейт : 4478 Кбит/сек
Максимальный битрейт : 5000 Кбит/сек
Ширина : 1280 пикселей
Высота : 548 пикселей
Соотношение сторон : 2,35:1
Режим частоты кадров : Постоянный
Частота кадров : 23,976 (24000/1001) кадра/сек
Стандарт вещания : Component
Цветовое пространство : YUV
Субдискретизация насыщенности : 4:2:0
Битовая глубина : 8 бит
Тип развёртки : Прогрессивная
Бит/(Пиксели*Кадры) : 0.261
Размер потока : 3,08 Гбайт (90%)
Default : Да
Forced : Нет
Цветовой диапазон : Limited
Основные цвета : BT.709
Характеристики трансфера : BT.709
Коэффициенты матрицы : BT.709

Аудио
Идентификатор : 2
Формат : AC-3
Формат/Информация : Audio Coding 3
Расширение режима : CM (complete main)
Параметр Endianness формата : Big
Идентификатор кодека : A_AC3
Продолжительность : 1 ч. 40 м.
Вид битрейта : Постоянный
Битрейт : 384 Кбит/сек
Каналы : 2 канала
Расположение каналов : Front: L R
Частота : 48,0 КГц
Частота кадров : 31,250 кадров/сек (1536 spf)
Метод сжатия : С потерями
Размер потока : 277 Мбайт (8%)
Default : Да
Forced : Нет

pb.wtf



Скачать Похищены и проданы через торрент http://i101.fastpic.ru/big/2018/0116/b0/c8a0d9ede41f0ec9ca71c19a6ac5a4b0.jpg Скачать фильм Похищены и проданы через торрент бесплантно в хорошем качестве Описание: Фильм снятый по мотивам реальных событий, повествует о трёх девушках из Нигерии, Индии и США, которые через глобальную сеть ... 9.9 10 7
Торрент: Зарегистрирован [2018-01-16 06:11] · скачан: 106 раз
Статус: T временная
Размер: 3.42 GB
Как cкачать? Как скачать Похищены и проданы через торрент | qTorrent

% Раздел Тема Автор DL S | L
T Фильмы (мультфильмы) cо спонсором показа (Новинки AVI/MKV) [ 1.37 GB ] Похищены и проданы / Trafficked [2017 WEB-DLRip] MVO ["Синема УС"] bober100 Скачать
1 | 0

28-11-2019 20:33  

Отключить всю рекламу на сайте

    Дорогой пользователь! Огромная просьба, поблагодарите релизера, оцените раздачу и оставьте свои комментарий, если Вы скачали Похищены и проданы через торрент бесплатно! Внесите свою лепту в развитие PiratBit!
    Комментировать посты могут только пользователи прошедшие не сложную регистрацию
    Показать сообщения:    

    Похищены и проданы через торрент
    Скачать бесплатно Похищены и проданы
    Похищены и проданы скачать торрент
    Похищены и проданы смотреть онлайн
    Cкачать фильм Похищены и проданы бесплатно
    Похищены и проданы скачать торрент в хорошем качестве
    Похищены и проданы смотреть онлайн бесплатно в хорошем качестве


    Вы не можете начинать темы
    Вы не можете отвечать на сообщения
    Вы не можете редактировать свои сообщения
    Вы не можете удалять свои сообщения
    Вы не можете голосовать в опросах
    Вы не можете прикреплять файлы к сообщениям
    Вы можете скачивать файлы