новый адрес
Мега распродажа FORZA HORIZON 4 ULTIMATE+ВСЕ DLC+ОНЛАЙН всего за 499р. 349 руб. (супер цена). Внимание количество ограничено!!!

iTunes

1+1

iTunes

мы

iTunes

1

iTunes

Чернобыль

iTunes

Ральф против интернета

Лицензия

ПШазам

Лицензия

Игра престолов

Лицензия

30
pack

ВАЖНО

!!Акция!!

Alien_RageХит недели

RePack

Resident Evil 21

ИГРА 18+

pack

RePack

Metro:Exodus

!!Акция!!

Alien_Rage

RePack

fifa19

RePack

Assassins Creed: Odyssey

RePack

NEED FOR SPEED™ PAYBACK

3 сезон

9 сезон

Бесстыжие 9 сезон

Все сериалы

все сериалы на PB.wtf

RePack

FAR CRY 5
Ребята, катастрофически не хватает 1900р. для оплаты серверов за Октябрь (всвязи с блокировками трафик упал в 3 раза), 1-2р., выручайте.
  

Колыбельная (Михаил Калик) [1959, СССР, драма, SATRip от AVP Studio] pb.wtf

Колыбельная через торрент pb.wtf

Размер: 1.09 GB | Добавлен: 1 год 10 мес. назад | Торрент скачан:12 раз
Скачать  

16-01-2018 09:09 Колыбельная Скачать торрент  

Колыбельная
Страна: СССР
Производство: Молдова-филм

Жанр: драма
Год выпуска: 1959
Продолжительность: 01:30:05

Перевод: Не требуется
Cубтитры: нет
Оригинальная аудиодорожка: русский

Режиссер: Михаил Калик

В ролях:
Николай Тимофеев, Виктория Лепко, Лида Пигуренко, Любовь Румянцева, Виталий Четвериков, Юрий Соловьёв, Константин Крамарчук, Шура Кузнецов, Михаил Трояновский, Владимир Заманский, Лев Круглый, Екатерина Савинова, Владимир Ратомский, Клавдия Половикова, Евгений Тетерин, Ада Войцик, Татьяна Гурецкая, Светлана Светличная, Алексей Зайцев, Ирина Радченко, Елена Измайлова, Виктор Маркин, Евгений Шутов...
Об актёрах подробней

Описание:
Летчик Лосев, потерявший во время войны семью, узнает о том, что его дочь Аурика во время бомбежки была спасена, - и отправляется на ее поиски. Много судеб и историй переживет бывший летчик, прежде чем знакомый напев колыбельной поможет ему признать в случайной попутчице дочь.

Исходник: DVB
Качество видео: SATRip
Формат видео: AVI

Видео: 688х512 (4:3), 25 fps, XviD ~ 1530 kbps avg, 0.174 bit/pixel
Аудио: 48 kHz, Dolby Digital AC3 2.0, 192 kbps

Раздача от:
Общее
Полное имя : Kolybelnaya.1959.SATRip_[New-team]_by_AVP_Studio.avi
Формат : AVI
Формат/Информация : Audio Video Interleave
Размер файла : 1,09 Гбайт
Продолжительность : 1 ч. 30 м.
Общий поток : 1732 Кбит/сек
Программа кодирования : VirtualDubMod 1.5.10.3 | www.virtualdub-fr.org || (build 2550/release)
Библиотека кодирования : VirtualDubMod build 2550/release

Видео
Идентификатор : 0
Формат : MPEG-4 Visual
Профиль формата : Advanced Simple@L5
Настройки формата : BVOP1 / Custom Matrix
Параметр BVOP формата : 1
Параметр QPel формата : Нет
Параметр GMC формата : Без точки перехода
Параметр матрицы формата : Выборочная
Идентификатор кодека : XVID
Идентификатор кодека/Подсказка : XviD
Продолжительность : 1 ч. 30 м.
Битрейт : 1530 Кбит/сек
Ширина : 688 пикселей
Высота : 512 пикселей
Соотношение сторон : 4:3
Частота кадров : 25,000 кадров/сек
Цветовое пространство : YUV
Субдискретизация насыщенности : 4:2:0
Битовая глубина : 8 бит
Тип развёртки : Прогрессивная
Метод сжатия : С потерями
Бит/(Пиксели*Кадры) : 0.174
Размер потока : 986 Мбайт (88%)
Библиотека кодирования : XviD 73

Аудио
Идентификатор : 1
Формат : AC-3
Формат/Информация : Audio Coding 3
Идентификатор кодека : 2000
Продолжительность : 1 ч. 30 м.
Вид битрейта : Постоянный
Битрейт : 192 Кбит/сек
Каналы : 2 канала
Расположение каналов : Front: L R
Частота : 48,0 КГц
Частота кадров : 31,250 кадров/сек (1536 SPF)
Битовая глубина : 16 бит
Метод сжатия : С потерями
Размер потока : 124 Мбайт (11%)
Выравнивание : Разделение по промежуткам
Продолжительность промежутка : 40 мс. (1,00 видеокадр)
Время предзагрузки промежутка : 500 мс
pb.wtf



Скачать Колыбельная через торрент http://i100.fastpic.ru/big/2018/0116/2b/96b77fe1efbbdc2873809f5fd217722b.png Скачать фильм Колыбельная через торрент бесплантно в хорошем качестве Описание:Летчик Лосев, потерявший во время войны семью, узнает о том, что его дочь Аурика во время бомбежки была спасена, - и отправляется ... 5 10 1
Info! Золотая раздача, скачанное не засчитывается.
Торрент: Зарегистрирован [2018-01-16 09:09] · скачан: 12 раз
Статус: √ проверено
Размер: 1.09 GB
Как cкачать? Как скачать Колыбельная через торрент | qTorrent

% Раздел Тема Автор DL S | L
Детективы, Боевики, Триллеры [ 477 MB ] Данихнов Владимир - Колыбельная [Росляков Михаил 2018 96 kbps MP3] bober100 Скачать
2 | 0
Кино СССР [ 1.09 GB ] Колыбельная [1959 СССР SATRip-AVC от AVP Studio] AVP Studio Скачать
1 | 0
Кино СССР [ 745 MB ] Колыбельная [1959 СССР SATRip от AVP Studio] AVP Studio Скачать
1 | 0
Сборники песен для детей [ 73 MB ] Вера Дворянинова - Мамины колыбельные 2008 / MP3 / 320 kbps / Колыбельные megatoxa Скачать
1 | 0
Eurodance, Technopop, Disco (сборники) (mp3) [ 857 MB ] VA - Поп-Рок-Хиты В Стиле Колыбельных Для Малышей 2015 / MP3 / 320 kbps / Childrens Lullaby Instrumental den7z8 Скачать
1 | 0
Фильмы 2010 [ 1.45 GB ] Колыбельная для Пи / Lullaby for Pi [2010 HDRip Любительский двухголосый] coc900 Скачать
1 | 0
Фильмы 2010 [ 745 MB ] Колыбельная / Kolysanka [2010 DVDRip] Lyfe Скачать
1 | 0


>> Регистрируемся здесь <<






Отзывы и комментарии о схеме читаем и пишем здесь: ---> Отзывы и комментарии о схеме

Новые благодарочки в телеграм довольных пользователей:
скриншот   скриншот   скриншот   скриншот   скриншот
    Дорогой пользователь! Огромная просьба, поблагодарите релизера, оцените раздачу и оставьте свои комментарий, если Вы скачали Колыбельная через торрент бесплатно! Внесите свою лепту в развитие PiratBit!
    Комментировать посты могут только пользователи прошедшие не сложную регистрацию
    Показать сообщения:    

    Колыбельная через торрент
    Скачать бесплатно Колыбельная
    Колыбельная скачать торрент
    Колыбельная смотреть онлайн
    Cкачать фильм Колыбельная бесплатно
    Колыбельная скачать торрент в хорошем качестве
    Колыбельная смотреть онлайн бесплатно в хорошем качестве


    Вы не можете начинать темы
    Вы не можете отвечать на сообщения
    Вы не можете редактировать свои сообщения
    Вы не можете удалять свои сообщения
    Вы не можете голосовать в опросах
    Вы не можете прикреплять файлы к сообщениям
    Вы можете скачивать файлы