Ссылка на приватное зеркало нашего сайта всего за 1$. Внимание количество ограничено!!!

2 сезон

iTunes

1 сезон

1

2 сезон

2 сезон

iTunes

1 сезон

RePack

30

Новинка

ВАЖНО

ИГРА 18+

pack

RePack

MK11
pack

Забери бонус

RePack

jed

!!Акция!!

Alien_Rage

RePack

fifa19

RePack

Assassins Creed: Odyssey

RePack

NEED FOR SPEED™ PAYBACK

4 сезон

9 сезон

Бесстыжие 9 сезон

Все сериалы

все сериалы на PB.wtf

RePack

FAR CRY 5
  

Гоморра / Gomorra: La serie / Сезон 3 / Серии 1-12 из 12 (Стефано Соллима, Клаудио Капеллини, Франческа Коменчини) [2017, драма, криминал, триллер, HDTVRip 1080p] [MVO] (AMS) pb.wtf

Гоморра через торрент pb.wtf

Размер: 25.32 GB | Добавлен: 2 года 10 мес. назад | Торрент скачан:63 раза
Скачать  

16-01-2018 09:47 Гоморра Скачать торрент  

Гоморра / Gomorra: La serie Год выпуска: 2017
Страна: Италия, Германия
Жанр: Драма, криминал
Продолжительность: ~ 00:50:00
Перевод: Профессиональный (многоголосый закадровый) (AMS)

Режиссёр: Клаудио Капеллини, Стефано Соллима, Франческа Коменчини

В ролях: Марко Д’Амор, Сальваторе Эспозито, Фортунато Серлино, Фабио Де Каро, Christian Giroso, Giovanni Buselli, Кармине Монако, Лино Муселла, Кристина Донадио, Marco Palvetti и другие

Описание:
История о людях и судьбах, связанных с жестокой и могущественной неаполитанской преступной организацией. Рассказ о жизни мафиозного клана изнутри, увиденной глазами 30-летнего Чиро, верного помощника крестного отца Пьетро Савастано.

ratingСэмпл

Качество: HDTVRip 1080p
Контейнер: MKV
Видео: MPEG-4 AVC, 1920x1040, 1.85:1, ~5244 Кбит/с, 25 fps, ~0.105 bit/pixel
Аудио 1: Русский, AC3, 48.0 KHz, 6 channels, 384 Kbps
Аудио 2: Итальянский, AC3, 48.0 KHz, 6 channels, 384 Kbps
Субтитры: отсутствуют
General
Unique ID : 57877041300695557069671484156087961165 (0x2B8AB673125A3B85386BF40FFB01064D)
Complete name : /Gomorra.S03.1080p.HDTVRip.AMS/Gomorra.S03E01.1080p.HDTVRip.AMS.mkv
Format : Matroska
Format version : Version 4 / Version 2
File size : 1.90 GiB
Duration : 45mn 13s
Overall bit rate : 6 014 Kbps
Encoded date : UTC 2017-01-01 23:59:59
Writing application : mkvmerge v8.2.0 ('World of Adventure') 64bit
Writing library : libebml v1.3.1 + libmatroska v1.4.2

Video
ID : 1
Format : AVC
Format/Info : Advanced Video Codec
Format profile : High@L4.1
Format settings, CABAC : Yes
Format settings, ReFrames : 4 frames
Codec ID : V_MPEG4/ISO/AVC
Duration : 45mn 13s
Bit rate : 5 244 Kbps
Width : 1 920 pixels
Height : 1 040 pixels
Display aspect ratio : 1.85:1
Frame rate mode : Constant
Frame rate : 25.000 fps
Color space : YUV
Chroma subsampling : 4:2:0
Bit depth : 8 bits
Scan type : Progressive
Bits/(Pixel*Frame) : 0.105
Stream size : 1.66 GiB (87%)
Writing library : x264 core 152 r2851 ba24899
Encoding settings : cabac=1 / ref=4 / deblock=1:-1:-1 / analyse=0x3:0x133 / me=tesa / subme=11 / psy=1 / psy_rd=1.00:0.15 / mixed_ref=1 / me_range=24 / chroma_me=1 / trellis=2 / 8x8dct=1 / cqm=0 / deadzone=21,11 / fast_pskip=1 / chroma_qp_offset=-3 / threads=16 / lookahead_threads=2 / sliced_threads=0 / nr=0 / decimate=1 / interlaced=0 / bluray_compat=0 / constrained_intra=0 / bframes=8 / b_pyramid=2 / b_adapt=2 / b_bias=0 / direct=3 / weightb=1 / open_gop=0 / weightp=2 / keyint=250 / keyint_min=25 / scenecut=40 / intra_refresh=0 / rc_lookahead=60 / rc=crf / mbtree=1 / crf=18.0 / qcomp=0.60 / qpmin=10 / qpmax=51 / qpstep=4 / ip_ratio=1.40 / aq=1:0.80
Default : Yes
Forced : No

Audio #1
ID : 2
Format : AC-3
Format/Info : Audio Coding 3
Mode extension : CM (complete main)
Format settings, Endianness : Big
Codec ID : A_AC3
Duration : 45mn 13s
Bit rate mode : Constant
Bit rate : 384 Kbps
Channel(s) : 6 channels
Channel positions : Front: L C R, Side: L R, LFE
Sampling rate : 48.0 KHz
Frame rate : 31.250 fps (1536 spf)
Compression mode : Lossy
Stream size : 124 MiB (6%)
Language : Russian
Default : Yes
Forced : No

Audio #2
ID : 3
Format : AC-3
Format/Info : Audio Coding 3
Mode extension : CM (complete main)
Format settings, Endianness : Big
Codec ID : A_AC3
Duration : 45mn 13s
Bit rate mode : Constant
Bit rate : 384 Kbps
Channel(s) : 6 channels
Channel positions : Front: L C R, Side: L R, LFE
Sampling rate : 48.0 KHz
Frame rate : 31.250 fps (1536 spf)
Compression mode : Lossy
Delay relative to video : 100ms
Stream size : 124 MiB (6%)
Language : Italian
Default : No
Forced : No
скриншот  скриншот  скриншот  
pb.wtf



Скачать Гоморра через торрент http://s019.radikal.ru/i625/1712/a9/1810472a4ed9.png Скачать фильм Гоморра через торрент бесплантно в хорошем качестве Описание:История о людях и судьбах, связанных с жестокой и могущественной неаполитанской преступной организацией. Рассказ о жизни ... 7 10 3
Info! Золотая раздача, скачанное не засчитывается.
Торрент: Зарегистрирован [2018-01-16 09:47] · скачан: 63 раз
Статус: √ проверено
Размер: 25.32 GB
Как cкачать? Как скачать Гоморра через торрент | qTorrent

% Раздел Тема Автор DL S | L
Зарубежные сериалы [ 7.13 GB ] Гоморра / Gomorra: La serie / Сезон 3 / Серии 1-12 из 12 [2017 WEBRip] [MVO] killermax2013 Скачать
1 | 0
Зарубежные сериалы [ 31.7 GB ] Гоморра / Gomorra: La serie / Сезон 3 / Серии 1-12 из 12 [2017 WEBRip 1080p] [MVO] killermax2013 Скачать
1 | 0
Зарубежные сериалы [ 23.67 GB ] Гоморра / Gomorra: La serie / Сезон 3 / Серии 1-12 из 12 [2017 HDTV 1080p] DVO [ViruseProject] bober100 Скачать
1 | 0

28-11-2019 20:33  

Отключить всю рекламу на сайте

    Дорогой пользователь! Огромная просьба, поблагодарите релизера, оцените раздачу и оставьте свои комментарий, если Вы скачали Гоморра через торрент бесплатно! Внесите свою лепту в развитие PiratBit!
    Комментировать посты могут только пользователи прошедшие не сложную регистрацию
    Показать сообщения:    

    Гоморра через торрент
    Скачать бесплатно Гоморра
    Гоморра скачать торрент
    Гоморра смотреть онлайн
    Cкачать фильм Гоморра бесплатно
    Гоморра скачать торрент в хорошем качестве
    Гоморра смотреть онлайн бесплатно в хорошем качестве


    Вы не можете начинать темы
    Вы не можете отвечать на сообщения
    Вы не можете редактировать свои сообщения
    Вы не можете удалять свои сообщения
    Вы не можете голосовать в опросах
    Вы не можете прикреплять файлы к сообщениям
    Вы можете скачивать файлы