Ссылка на приватное зеркало нашего сайта всего за 1$. Внимание количество ограничено!!!

2 сезон

iTunes

1 сезон

1

2 сезон

2 сезон

iTunes

1 сезон

RePack

30

Ultimate

ВАЖНО

ИГРА 18+

pack

RePack

MK11
pack

Забери бонус

RePack

jed

!!Акция!!

Alien_Rage

RePack

fifa19

RePack

Assassins Creed: Odyssey

RePack

NEED FOR SPEED™ PAYBACK

4 сезон

9 сезон

Бесстыжие 9 сезон

Все сериалы

все сериалы на PB.wtf

RePack

FAR CRY 5
  

Заложница / Taken / Сезон: 2 / Серии: 1-16 из 16 (Ромео Тироне, Лекси Александр, Алекс Грейвз) [2018, Боевик, триллер, WEBRip] MVO [Jaskier] pb.wtf

Заложница через торрент pb.wtf

Размер: 8.42 GB | Добавлен: 2 года 4 мес. назад | Торрент скачан:11 раз
Скачать  

16-01-2018 10:06 Заложница Скачать торрент  

Заложница / Taken
Год выпуска: 2018
Страна: США, Франция
Жанр: Боевик, триллер
Продолжительность: ~ 00:45:00
Перевод: Профессиональный многоголосый | Jaskier
Субтитры: отсутствуют

Режиссер: Ромео Тироне, Лекси Александр, Алекс Грейвз

rating

В ролях:

Клайв Стэнден, Джеймс Хеберт, Симу Лью, Дженнифер Марсала, Мэттью Беннетт, Романо Орцари, Саад Сиддикуи, Джанет Рэкуэл, Дженнифер Билз, Моник Кёрнен

Описание:

Это история молодого Брайана Миллса, бывшего «зеленого берета», пережившего трагедию, которая полностью изменила его. Справляясь с последствиями травмы, Миллс становится оперативником ЦРУ, и новая работа пробуждает в нем особенные и невероятно опасные таланты.

Качество: WEBRip
Формат: AVI

Видео: XviD, ~ 1500 kbps, 720x400 (16:9), 23,976 fps
Аудио#1: MP3, 48,0 КГц, 2 ch, 128 kbps - Rus
Аудио#2: MP3, 48,0 КГц, 2 ch, 128 kbps - Eng
скриншот   скриншот   скриншот  

Общее
Полное имя : D:\Taken Season 1 (WEBRip l 400p l Jaskier)\Taken.S02E01.WEBRip.Jaskier.Rus.Eng.avi
Формат : AVI
Формат/Информация : Audio Video Interleave
Размер файла : 546 Мбайт
Продолжительность : 43 м. 7 с.
Общий поток : 1769 Кбит/сек
Программа кодирования : VirtualDubMod 1.5.10.3 | www.virtualdub-fr.org || (build 2550/release)
Библиотека кодирования : VirtualDubMod build 2550/release

Видео
Идентификатор : 0
Формат : MPEG-4 Visual
Профиль формата : Advanced Simple@L5
Параметр BVOP формата : 2
Параметр QPel формата : Нет
Параметр GMC формата : Без точки перехода
Параметр матрицы формата : Default (MPEG)
Идентификатор кодека : XVID
Идентификатор кодека/Подсказка : XviD
Продолжительность : 43 м. 7 с.
Битрейт : 1499 Кбит/сек
Ширина : 720 пикселей
Высота : 400 пикселей
Соотношение сторон : 16:9
Частота кадров : 23,976 (24000/1001) кадра/сек
Цветовое пространство : YUV
Субдискретизация насыщенности : 4:2:0
Битовая глубина : 8 бит
Тип развёртки : Прогрессивная
Метод сжатия : С потерями
Бит/(Пиксели*Кадры) : 0.217
Размер потока : 462 Мбайт (85%)
Библиотека кодирования : XviD 1.2.1 (UTC 2008-12-04)

Аудио #1
Идентификатор : 1
Формат : MPEG Audio
Версия формата : Version 1
Профиль формата : Layer 3
Режим : Joint stereo
Расширение режима : MS Stereo
Идентификатор кодека : 55
Идентификатор кодека/Подсказка : MP3
Продолжительность : 43 м. 7 с.
Вид битрейта : Постоянный
Битрейт : 128 Кбит/сек
Каналы : 2 канала
Частота : 48,0 КГц
Метод сжатия : С потерями
Размер потока : 39,5 Мбайт (7%)
Выравнивание : Соединение по промежуткам
Продолжительность промежутка : 42 мс. (1,00 видеокадр)
Время предзагрузки промежутка : 504 мс.
Библиотека кодирования : LAME3.100Є

Аудио #2
Идентификатор : 2
Формат : MPEG Audio
Версия формата : Version 1
Профиль формата : Layer 3
Режим : Joint stereo
Расширение режима : MS Stereo
Идентификатор кодека : 55
Идентификатор кодека/Подсказка : MP3
Продолжительность : 43 м. 7 с.
Вид битрейта : Постоянный
Битрейт : 128 Кбит/сек
Каналы : 2 канала
Частота : 48,0 КГц
Метод сжатия : С потерями
Размер потока : 39,5 Мбайт (7%)
Выравнивание : Соединение по промежуткам
Продолжительность промежутка : 42 мс. (1,00 видеокадр)
Время предзагрузки промежутка : 504 мс.
Библиотека кодирования : LAME3.100Є

Когда раздача ведётся путём добавления новых серий, при каждом добавлении создётся новый торрент. Чтобы начать докачку новой серии, пользователям необходимо сделать следующее
(1) остановить скачивание,
(2) удалить старый торрент у себя из клиента (старые серии удалять не надо),
(3) скачать новый торрент и запустить его у себя в клиенте вместо старого, при этом указать клиенту путь в старую папку, куда и должно происходить скачивание новых серий.
Ваш клиент при этом должен произвести хеширование (проверку) старой папки (если не производит сам - помогите ему сделать это), и будет докачивать только те серии, которых у вас ещё нет. Старые серии при этом не удаляются, а продолжают раздаваться!
Eсли вы уже удалили старые серии, то предотвратить повторную закачку старых серий можно, отжав галочку в соответсвующих местах при запуске нового торрента. По возможности, желательно не удалять старые серии как можно дольше, чтобы релизёр не столько продолжал раздавать старые серии, а смог сконцентрироваться на новых.
pb.wtf



Скачать Заложница через торрент http://i100.fastpic.ru/big/2018/0116/fe/bcf65afd8cbede130face971d5bda2fe.jpg Скачать фильм Заложница через торрент бесплантно в хорошем качестве Описание: Это история молодого Брайана Миллса, бывшего «зеленого берета», пережившего трагедию, которая полностью изменила его. Справляясь ... 10 10 3
Торрент: Зарегистрирован [2018-07-04 15:49] · скачан: 11 раз
Статус: √ проверено
Размер: 8.42 GB
Как cкачать? Как скачать Заложница через торрент | qTorrent

% Раздел Тема Автор DL S | L
Зарубежные сериалы [ 28.71 GB ] Заложница / Taken / Сезон: 2 / Серии: 1-16 из 16 [2018 WEB-DL 1080p] MVO [LostFilm] bober100 Скачать
1 | 0
Зарубежные сериалы [ 23 GB ] Заложница / Taken / Сезон: 2 / Серии: 1-16 из 16 [2018 WEB-DL 720p] MVO [NewStudio] bober100 Скачать
1 | 0
Зарубежные сериалы [ 8.6 GB ] Заложница / Taken / Сезон: 2 / Серии: 1-16 из 16 [2018 WEB-DLRip] MVO [NewStudio] bober100 Скачать
1 | 0
Зарубежные сериалы [ 24.23 GB ] Заложница / Taken / Сезон: 2 / Серии: 1-16 из 16 [2018 WEBRip 720p] MVO [Jaskier] bober100 Скачать
1 | 0
Зарубежные сериалы [ 7.72 GB ] Заложница / Taken / Сезон: 2 / Серии 1-16 из 16 [2017 WEBRip WEB-DLRip] MVO [BaibaKo] GEKADOL Скачать
1 | 0
Зарубежные сериалы [ 25.09 GB ] Заложница / Taken / Сезон: 2 / Серии 1-16 из 16 [2017 WEBRip 720p WEB-DL 720p] MVO [BaibaKo] GEKADOL Скачать
1 | 0
Зарубежные сериалы [ 9.16 GB ] Заложница / Taken / Сезон: 2 / Серии: 1-16 из 16 [2018 WEBRip WEB-DLRip] MVO [BaibaKo] bober100 Скачать
1 | 0

28-11-2019 20:33  

Отключить всю рекламу на сайте

    Дорогой пользователь! Огромная просьба, поблагодарите релизера, оцените раздачу и оставьте свои комментарий, если Вы скачали Заложница через торрент бесплатно! Внесите свою лепту в развитие PiratBit!
    Комментировать посты могут только пользователи прошедшие не сложную регистрацию
    Показать сообщения:    

    Заложница через торрент
    Скачать бесплатно Заложница
    Заложница скачать торрент
    Заложница смотреть онлайн
    Cкачать фильм Заложница бесплатно
    Заложница скачать торрент в хорошем качестве
    Заложница смотреть онлайн бесплатно в хорошем качестве


    Вы не можете начинать темы
    Вы не можете отвечать на сообщения
    Вы не можете редактировать свои сообщения
    Вы не можете удалять свои сообщения
    Вы не можете голосовать в опросах
    Вы не можете прикреплять файлы к сообщениям
    Вы можете скачивать файлы