Всегда рабочее зеркало без VPN и Proxy просто перед .vidak.icu напиши любое слово или цифру, Пример http://arpx.vidak.icu

Лицензия

MVO

1 сезон

1

1 сезон

iTunes

1 сезон

13

1 сезон

Deluxe

pack

Рекомендуем

Repack

30

ВАЖНО

RePack

MK11

RePack

jed

RePack

fifa19

RePack

RDR2

RePack

NEED FOR SPEED™ PAYBACK

Кинопоиск HD

6 сезон

 Острые козырьки 6 сезон

Все сериалы

все сериалы на PB.wtf

RePack

FAR CRY 5
  
Magnet ссылка

Quatro, Scott & Powell - Quatro, Scott & Powell - 2017/ WavPack/ image +.cue/ lossless/ Classic Rock, Hard Rock pb.wtf

Quatro, Scott & Powell - Quatro, Scott & Powell - 2017 через торрент pb.wtf

Размер: 558 MB | Добавлен: 4 года 6 мес. назад | Торрент скачан:25 раз
Смотреть онлайн Quatro, Scott & Powell - Quatro, Scott & Powell - 2017 | Скачать    Ребята, помогите собрать деньги на оплату серверов!!!

16-01-2018 10:49 Quatro, Scott & Powell - Quatro, Scott & Powell - 2017 Скачать торрент  


Quatro, Scott & Powell - Quatro, Scott & Powell


Год издания: 2017
Страна: USA|UK
Жанр: Classic Rock, Hard Rock
Продолжительность: 01:13:55
Лейбл издания: Warner Music Russia
Страна-выпуска диска: EU
Номер по каталогу: 4601620108518
Формат: WavPack
Битрейт аудио: Lossless
Тип рипа: image +.cue
Наличие сканов в содержимом раздачи: да

Легендарная бас-гитаристка и вокалистка Suzi Quatro, объединив свои усилия с не менее известными музыкантами – гитаристом Andy Scott (Sweet) и барабанщиком Don Powell (Slade) – собрала новую супер-группу. Коллектив получил название Quatro, Scott & Powell и выпустил свой одноименный дебютный альбом, теперь на европейском рынке. Диск вышел 27 октября в издании Deluxe Edition и включает в себя 16 композиций - как кавер-версии, так и оригинальные треки, сочиненные специально для этого альбома. На 8 декабря запланировано издание альбома на двойном виниле. Warner Music получили права на первый релиз альбома QSP в Европе. Альбом содержит два дополнительных трека, которые не были включены в оригинальный релиз, вышедший ранее в Австралии и в Азии.

01. Slow down (3:46)
02. Long way from home (6:14)
03. Tobacco road (3:42)
04. If only (4:42)
05. Bright lights big city (5:46)
06. Pain - (band version) (4:08)
07. Just like a woman (5:13)
08. Mend a broken heart (3:25)
09. The price of love (5:05)
10. Broken pieces suite (5:54)
11. I walk on gilded splinters (5:58)
12. Late nights early flights (3:53)
13. Little sister (3:10)
14. Fever (5:39)
15. Tossin' and turnin' (3:17)
16. Pain (orchestral version) (4:03)

Код:

Exact Audio Copy V1.3 from 2. September 2016

EAC extraction logfile from 20. November 2017, 12:11

Quatro, Scott & Powell / Quatro, Scott & Powell

Used drive  : PLEXTOR DVDR   PX-L890SA   Adapter: 1  ID: 0

Read mode               : Secure
Utilize accurate stream : Yes
Defeat audio cache      : Yes
Make use of C2 pointers : No

Read offset correction                      : 6
Overread into Lead-In and Lead-Out          : No
Fill up missing offset samples with silence : Yes
Delete leading and trailing silent blocks   : No
Null samples used in CRC calculations       : Yes
Used interface                              : Native Win32 interface for Win NT & 2000

Used output format              : User Defined Encoder
Selected bitrate                : 1024 kBit/s
Quality                         : High
Add ID3 tag                     : No
Command line compressor         : C:\Program Files (x86)\Exact Audio Copy\wavpack.exe
Additional command line options : -lm %source%

TOC of the extracted CD

     Track |   Start  |  Length  | Start sector | End sector
    ---------------------------------------------------------
        1  |  0:00.00 |  3:45.44 |         0    |    16918
        2  |  3:45.44 |  6:14.12 |     16919    |    44980
        3  |  9:59.56 |  3:42.26 |     44981    |    61656
        4  | 13:42.07 |  4:42.19 |     61657    |    82825
        5  | 18:24.26 |  5:45.58 |     82826    |   108758
        6  | 24:10.09 |  4:08.29 |    108759    |   127387
        7  | 28:18.38 |  5:12.58 |    127388    |   150845
        8  | 33:31.21 |  3:24.62 |    150846    |   166207
        9  | 36:56.08 |  5:05.05 |    166208    |   189087
       10  | 42:01.13 |  5:54.34 |    189088    |   215671
       11  | 47:55.47 |  5:57.42 |    215672    |   242488
       12  | 53:53.14 |  3:52.71 |    242489    |   259959
       13  | 57:46.10 |  3:09.60 |    259960    |   274194
       14  | 60:55.70 |  5:38.73 |    274195    |   299617
       15  | 66:34.68 |  3:17.21 |    299618    |   314413
       16  | 69:52.14 |  4:03.09 |    314414    |   332647

Range status and errors

Selected range

     Filename D:\wwphil\Quatro, Scott & Powell - Quatro, Scott & Powell\Quatro, Scott & Powell - Quatro, Scott & Powell.wav

     Peak level 96.8 %
     Extraction speed 9.7 X
     Range quality 100.0 %
     Test CRC E4999291
     Copy CRC E4999291
     Copy OK

No errors occurred

AccurateRip summary

Track  1  not present in database
Track  2  not present in database
Track  3  not present in database
Track  4  not present in database
Track  5  not present in database
Track  6  not present in database
Track  7  not present in database
Track  8  not present in database
Track  9  not present in database
Track 10  not present in database
Track 11  not present in database
Track 12  not present in database
Track 13  not present in database
Track 14  not present in database
Track 15  not present in database
Track 16  not present in database

None of the tracks are present in the AccurateRip database

End of status report

Код:

REM GENRE "Rock"
REM DATE 2017
REM DISCID D9115310
REM COMMENT "ExactAudioCopy v1.3"
REM COMPOSER ""
PERFORMER "Quatro, Scott & Powell"
TITLE "Quatro, Scott & Powell"
FILE "Quatro, Scott & Powell - Quatro, Scott & Powell (2017) [NL+].wv" WAVE
  TRACK 01 AUDIO
    TITLE "Slow down"
    PERFORMER "Quatro, Scott & Powell"
    REM COMPOSER ""
    INDEX 01 00:00:00
  TRACK 02 AUDIO
    TITLE "Long way from home"
    PERFORMER "Quatro, Scott & Powell"
    REM COMPOSER ""
    INDEX 01 03:45:44
  TRACK 03 AUDIO
    TITLE "Tobacco road"
    PERFORMER "Quatro, Scott & Powell"
    REM COMPOSER ""
    INDEX 00 09:59:54
    INDEX 01 09:59:56
  TRACK 04 AUDIO
    TITLE "If only"
    PERFORMER "Quatro, Scott & Powell"
    REM COMPOSER ""
    INDEX 01 13:42:07
  TRACK 05 AUDIO
    TITLE "Bright lights big city"
    PERFORMER "Quatro, Scott & Powell"
    REM COMPOSER ""
    INDEX 01 18:24:26
  TRACK 06 AUDIO
    TITLE "Pain - (band version)"
    PERFORMER "Quatro, Scott & Powell"
    REM COMPOSER ""
    INDEX 00 24:09:63
    INDEX 01 24:10:09
  TRACK 07 AUDIO
    TITLE "Just like a woman"
    PERFORMER "Quatro, Scott & Powell"
    REM COMPOSER ""
    INDEX 00 28:18:23
    INDEX 01 28:18:38
  TRACK 08 AUDIO
    TITLE "Mend a broken heart"
    PERFORMER "Quatro, Scott & Powell"
    REM COMPOSER ""
    INDEX 01 33:31:21
  TRACK 09 AUDIO
    TITLE "The price of love"
    PERFORMER "Quatro, Scott & Powell"
    REM COMPOSER ""
    INDEX 01 36:56:08
  TRACK 10 AUDIO
    TITLE "Broken pieces suite"
    PERFORMER "Quatro, Scott & Powell"
    REM COMPOSER ""
    INDEX 00 41:59:65
    INDEX 01 42:01:13
  TRACK 11 AUDIO
    TITLE "I walk on gilded splinters"
    PERFORMER "Quatro, Scott & Powell"
    REM COMPOSER ""
    INDEX 01 47:55:47
  TRACK 12 AUDIO
    TITLE "Late nights early flights"
    PERFORMER "Quatro, Scott & Powell"
    REM COMPOSER ""
    INDEX 01 53:53:14
  TRACK 13 AUDIO
    TITLE "Little sister"
    PERFORMER "Quatro, Scott & Powell"
    REM COMPOSER ""
    INDEX 00 57:45:64
    INDEX 01 57:46:10
  TRACK 14 AUDIO
    TITLE "Fever"
    PERFORMER "Quatro, Scott & Powell"
    REM COMPOSER ""
    INDEX 00 60:55:26
    INDEX 01 60:55:70
  TRACK 15 AUDIO
    TITLE "Tossin' and turnin'"
    PERFORMER "Quatro, Scott & Powell"
    REM COMPOSER ""
    INDEX 01 66:34:68
  TRACK 16 AUDIO
    TITLE "Pain (orchestral version)"
    PERFORMER "Quatro, Scott & Powell"
    REM COMPOSER ""
    INDEX 00 69:50:60
    INDEX 01 69:52:14

Line Up:
Suzi Quatro – Vocals, Bass
Andy Scott (The Sweet) – Guitar, Vocals
Don Powell (Slade) – Drums

QSP debut album


pb.wtf



Скачать Quatro, Scott & Powell - Quatro, Scott & Powell - 2017 через торрент http://i99.fastpic.ru/big/2018/0116/76/644435e581b30e87777ae2cb59d14176.png Скачать, смотреть онлайн Quatro, Scott & Powell - Quatro, Scott & Powell - 2017 бесплантно в хорошем качестве Трэклист Slow down (3:46) Long way from home (6:14) Tobacco road (3:42) If only (4:42) Bright lights big city ... 10 10 1
Торрент: Зарегистрирован [2018-01-16 10:49] · скачан: 25 раз
Статус: √ проверено
Размер: 558 MB
Как cкачать? Как скачать Quatro, Scott & Powell - Quatro, Scott & Powell - 2017 через торрент | UTorrent

28-11-2019 20:33  

Отключить вcю реклaмy на сайте

    Дорогой пользователь! Огромная просьба, поблагодарите релизера, оцените раздачу и оставьте свои комментарий, если Вы скачали Quatro, Scott & Powell - Quatro, Scott & Powell - 2017 через торрент бесплатно!
    Комментировать посты могут только пользователи прошедшие не сложную регистрацию
    Показать сообщения:    

    Quatro, Scott & Powell - Quatro, Scott & Powell - 2017 через торрент
    Скачать бесплатно Quatro, Scott & Powell - Quatro, Scott & Powell - 2017
    Quatro, Scott & Powell - Quatro, Scott & Powell - 2017 скачать торрент
    Quatro, Scott & Powell - Quatro, Scott & Powell - 2017 смотреть онлайн
    Cкачать фильм Quatro, Scott & Powell - Quatro, Scott & Powell - 2017 бесплатно
    Quatro, Scott & Powell - Quatro, Scott & Powell - 2017 скачать торрент в хорошем качестве
    Quatro, Scott & Powell - Quatro, Scott & Powell - 2017 смотреть онлайн бесплатно в хорошем качестве


    Вы не можете начинать темы
    Вы не можете отвечать на сообщения
    Вы не можете редактировать свои сообщения
    Вы не можете удалять свои сообщения
    Вы не можете голосовать в опросах
    Вы не можете прикреплять файлы к сообщениям
    Вы можете скачивать файлы