новый адрес
Мега распродажа FORZA HORIZON 4 ULTIMATE+ВСЕ DLC+ОНЛАЙН всего за 499р. 349 руб. (супер цена). Внимание количество ограничено!!!

iTunes

1+1

iTunes

мы

iTunes

1

iTunes

Чернобыль

iTunes

Ральф против интернета

Лицензия

ПШазам

Лицензия

Игра престолов

Лицензия

30
pack

ВАЖНО

!!Акция!!

Alien_RageХит недели

RePack

Resident Evil 21

ИГРА 18+

pack

RePack

Metro:Exodus

!!Акция!!

Alien_Rage

RePack

fifa19

RePack

Assassins Creed: Odyssey

RePack

NEED FOR SPEED™ PAYBACK

3 сезон

9 сезон

Бесстыжие 9 сезон

Все сериалы

все сериалы на PB.wtf

RePack

FAR CRY 5
Ребята, катастрофически не хватает 1900р. для оплаты серверов за Октябрь (всвязи с блокировками трафик упал в 3 раза), 1-2р., выручайте.
  

Пираты ХХ века (Борис Дуров) [1979 г., боевик, приключения, WEB-DLRip-AVC - ExKinoRay] pb.wtf

Пираты ХХ века через торрент pb.wtf

Раздают: 4 [ 0 KB/s ]
Размер: 2.5 GB | Добавлен: 1 год 10 мес. назад | Торрент скачан:35 раз
Скачать  

16-01-2018 13:08 Пираты ХХ века Скачать торрент  

Информация о фильме
Название: Пираты ХХ века
Год выхода: 1979
Жанр: Боевик
Режиссер: Борис Дуров
В ролях: Николай Ерёменко мл., Пётр Вельяминов, Талгат Нигматулин, Рейно Арен, Дилором Камбарова, Наталья Хорохорина, Джигангир Шахмурадов, Юрий Кутырев, Тадеуш Касьянов, Майя Эглите, Виктор Жиганов, Георгий Мартиросян, Леонид Трутнев, Владимир Епископосян, Лола Бадалова, Нартай Бегалин, Геннадий Четвериков, Яхье Файзуллаев, Олег Федулов, Виктор Гордеев, Игорь Кашинцев, Игорь Класс, Юрий Комаров, Сергей Кучков, Павел Ремезов, Владимир Жариков, Владимир Никитин, Таттыбюбю Турсунбаева, Владимир Карпичев

Описание: В основе этого приключенческого фильма — реальная история. Советский сухогрузный корабль перевозил большой груз опиума для фармакологической промышленности. Современные пираты, охотившиеся за ценным грузом, коварством завладели кораблем и экипажем. Чтобы не осталось свидетелей этого разбойного нападения, пираты попытались уничтожить всю команду корабля. В океанских просторах разыгралась напряженная борьба между горсткой советских моряков и современными разбойниками, не знающими пощады.



Страна: СССР, Киностудия им. М. Горького
Продолжительность: 01:19:52
Перевод: Не требуется

Файл
Формат: MKV
Качество: WEB-DLRip-AVC
Видео: MPEG-4 AVC, 1024x460 (2.226:1), 25.000 fps, ~3839 kbps avg, 0.326 bit/pixel
Звук 1: AC3, 48.0 KHz, 5.1 ch, 448 kbps
Звук 2: AC3, 48.0 KHz, 2.0 ch, 192 kbps
Субтитры: Русские
General
Unique ID : 253900585283851851664442302040814153114 (0xBF037958B0CCD196A90ED5A0FE686D9A)
Complete name : D:\Piraty.20.veka.1979.WEB-DLRip.AVC.ExKinoRay.mkv
Format : Matroska
Format version : Version 2
File size : 2.50 GiB
Duration : 1 h 19 min
Overall bit rate : 4 481 kb/s
Movie name : Пираты ХХ века (1979) from ExKinoRay
Encoded date : UTC 2018-01-16 03:17:49
Writing application : mkvmerge v5.6.0 ('Kenya Kane') built on May 27 2012 16:44:04
Writing library : libebml v1.2.3 + libmatroska v1.3.0

Video
ID : 1
Format : AVC
Format/Info : Advanced Video Codec
Format profile : High@L4.1
Format settings, CABAC : Yes
Format settings, ReFrames : 10 frames
Codec ID : V_MPEG4/ISO/AVC
Duration : 1 h 19 min
Bit rate : 3 839 kb/s
Width : 1 024 pixels
Height : 460 pixels
Display aspect ratio : 2.226
Frame rate mode : Constant
Frame rate : 25.000 FPS
Color space : YUV
Chroma subsampling : 4:2:0
Bit depth : 8 bits
Scan type : Progressive
Bits/(Pixel*Frame) : 0.326
Stream size : 2.09 GiB (84%)
Title : Enigma
Writing library : x264 core 152 r2851 ba24899
Encoding settings : cabac=1 / ref=10 / deblock=1:-2:-2 / analyse=0x3:0x113 / me=umh / subme=10 / psy=1 / psy_rd=1.02:0.10 / mixed_ref=1 / me_range=32 / chroma_me=1 / trellis=2 / 8x8dct=1 / cqm=0 / deadzone=21,11 / fast_pskip=0 / chroma_qp_offset=-3 / threads=12 / lookahead_threads=3 / sliced_threads=0 / nr=0 / decimate=0 / interlaced=0 / bluray_compat=0 / constrained_intra=0 / bframes=10 / b_pyramid=2 / b_adapt=2 / b_bias=0 / direct=3 / weightb=1 / open_gop=0 / weightp=2 / keyint=250 / keyint_min=25 / scenecut=40 / intra_refresh=0 / rc_lookahead=40 / rc=2pass / mbtree=0 / bitrate=3839 / ratetol=1.0 / qcomp=0.60 / qpmin=0 / qpmax=51 / qpstep=4 / cplxblur=20.0 / qblur=0.5 / vbv_maxrate=50000 / vbv_bufsize=62500 / nal_hrd=none / filler=0 / ip_ratio=1.40 / pb_ratio=1.30 / aq=1:1.00
Language : English
Default : Yes
Forced : No
Color range : Limited
Color primaries : BT.709
Transfer characteristics : BT.709
Matrix coefficients : BT.709

Audio #1
ID : 2
Format : AC-3
Format/Info : Audio Coding 3
Mode extension : CM (complete main)
Format settings, Endianness : Big
Codec ID : A_AC3
Duration : 1 h 19 min
Bit rate mode : Constant
Bit rate : 448 kb/s
Channel(s) : 6 channels
Channel positions : Front: L C R, Side: L R, LFE
Sampling rate : 48.0 kHz
Frame rate : 31.250 FPS (1536 spf)
Compression mode : Lossy
Stream size : 256 MiB (10%)
Language : Russian
Default : Yes
Forced : No

Audio #2
ID : 3
Format : AC-3
Format/Info : Audio Coding 3
Mode extension : CM (complete main)
Format settings, Endianness : Big
Codec ID : A_AC3
Duration : 1 h 19 min
Bit rate mode : Constant
Bit rate : 192 kb/s
Channel(s) : 2 channels
Channel positions : Front: L R
Sampling rate : 48.0 kHz
Frame rate : 31.250 FPS (1536 spf)
Compression mode : Lossy
Stream size : 110 MiB (4%)
Language : Russian
Default : No
Forced : No

Text
ID : 4
Format : UTF-8
Codec ID : S_TEXT/UTF8
Codec ID/Info : UTF-8 Plain Text
Language : Russian
Default : No
Forced : No

Menu
00:00:00.000 : en:Chapter 01
00:06:17.120 : en:Chapter 02
00:13:59.920 : en:Chapter 03
00:16:00.320 : en:Chapter 04
00:23:01.680 : en:Chapter 05
00:29:16.400 : en:Chapter 06
00:33:32.720 : en:Chapter 07
00:41:50.080 : en:Chapter 08
00:46:00.400 : en:Chapter 09
00:51:58.080 : en:Chapter 10
00:59:47.680 : en:Chapter 11
01:04:27.840 : en:Chapter 12
01:12:05.200 : en:Chapter 13
01:17:46.480 : en:Chapter 14
Релиз от:

Автор релиза: pb.wtf



Скачать Пираты ХХ века через торрент http://s45.radikal.ru/i109/1607/32/15645506a1bb.jpg Скачать фильм Пираты ХХ века через торрент бесплантно в хорошем качестве Описание: В основе этого приключенческого фильма — реальная история. Советский сухогрузный корабль перевозил большой груз опиума для ... 10 10 3
Info! Золотая раздача, скачанное не засчитывается.
Торрент: Зарегистрирован [2018-01-16 13:08] · скачан: 35 раз
Статус: √ проверено
Размер: 2.5 GB
Как cкачать? Как скачать Пираты ХХ века через торрент | qTorrent

% Раздел Тема Автор DL S | L
Кино СССР [ 700 MB ] Пираты ХХ века [1979 DVDRip] Abram007 Скачать
1 | 0


Последний раз редактировалось: Enigma2010 (2018-01-16 21:37), всего редактировалось 3 раз(а)


>> Регистрируемся здесь <<






Отзывы и комментарии о схеме читаем и пишем здесь: ---> Отзывы и комментарии о схеме

Новые благодарочки в телеграм довольных пользователей:
скриншот   скриншот   скриншот   скриншот   скриншот

16-01-2018 14:46 Пираты ХХ века Скачать торрент  

ЗНАТНЫЙ БОЕВИЧЕК МОЕГО ДЕТСТВА!!!))) ВАН ДАМ НЕ ПОПАДАЕТ!!!)))))))) pb.wtf



16-01-2018 18:37 Пираты ХХ века Скачать торрент  

Классика боевика эпохи СССР +) почти культовый фильм ))pb.wtf



    Дорогой пользователь! Огромная просьба, поблагодарите релизера, оцените раздачу и оставьте свои комментарий, если Вы скачали Пираты ХХ века через торрент бесплатно! Внесите свою лепту в развитие PiratBit!
    Комментировать посты могут только пользователи прошедшие не сложную регистрацию
    Показать сообщения:    

    Пираты ХХ века через торрент
    Скачать бесплатно Пираты ХХ века
    Пираты ХХ века скачать торрент
    Пираты ХХ века смотреть онлайн
    Cкачать фильм Пираты ХХ века бесплатно
    Пираты ХХ века скачать торрент в хорошем качестве
    Пираты ХХ века смотреть онлайн бесплатно в хорошем качестве


    Вы не можете начинать темы
    Вы не можете отвечать на сообщения
    Вы не можете редактировать свои сообщения
    Вы не можете удалять свои сообщения
    Вы не можете голосовать в опросах
    Вы не можете прикреплять файлы к сообщениям
    Вы можете скачивать файлы