Ссылка на приватное зеркало всего за 1$. Внимание количество ограничено!!!

OK

1+1

iTunes

мы

OK

1

WEB-DLRip

Джокер

Пифагор

Ведьмак / The Witcher сериал

iTunes

ПШазам

ОК

Оно 2

iTunes

30
pack

Вам бонус

ВАЖНО

!!Акция!!

Alien_RageХит недели

RePack

Resident Evil 21

ИГРА 18+

pack

RePack

jed

RePack

fifa19

RePack

Assassins Creed: Odyssey

RePack

NEED FOR SPEED™ PAYBACK

4 сезон

9 сезон

Бесстыжие 9 сезон

Все сериалы

все сериалы на PB.wtf

RePack

FAR CRY 5
  

Мелкий фермер / Petit paysan (Хьюберт Чаруэль) [2017, драма, BDRip 720p] MVO ["Синема УС"] pb.wtf

Мелкий фермер через торрент pb.wtf

Размер: 3.67 GB | Добавлен: 2 года назад | Торрент скачан:27 раз
Скачать  

16-01-2018 16:24 Мелкий фермер Скачать торрент  

Мелкий фермер / Petit paysanГод выпуска: 2017
Страна: Франция
Жанр: драма
Продолжительность: 01:30:59
Перевод: Любительский (многоголосый) ["Синема УС"]
Субтитры: отсутствуют

Режиссер: Хьюберт Чаруэль

rating

В ролях:

Сванн Арло, Сара Жиродо, Изабель Канделье, Були Ланнерс, Валентин Леспинассе, Клеман Брессон, Марк Барбе, Жан Чаруэль, Индия Хэйр, Джулиан Янецко

Описание:

Тридцатилетний Пьер занимается разведением молочного скота. Его жизнь вращается вокруг фермы, сестры-ветеринара и пожилых родителей, чей скот ему также пришлось взять на себя. Когда во Франции вспыхивает эпидемия зооноза, герой замечает у одного из своих животных признаки болезни. Пьер не может позволить себе потерять целое стадо, эти животные - всё, что у него есть. И он сделает всё возможное, чтобы спасти их.

Качество: BDRip 720p
Формат: MKV
Видео кодек: H.264
Аудио кодек: AC3

Видео: 5327 Кбит/с, 1280x696
Аудио#1: AC3, 2 ch, 448 Кбит/с


скриншот   скриншот   скриншот  

Общее
Уникальный идентификатор : 198790137445201661894725360484236359469 (0x958D967C626E79828B19D0D9C05B772D)
Полное имя : D:\Petit.Paysan.2017.P.BDRip.72Op_KOSHARA.mkv
Формат : Matroska
Версия формата : Version 2
Размер файла : 3,67 Гбайт
Продолжительность : 1 ч. 30 м.
Режим общего битрейта : Переменный
Общий поток : 5777 Кбит/сек
Дата кодирования : UTC 2018-01-14 13:31:53
Программа кодирования : mkvmerge v8.3.0 ('Over the Horizon') 64bit
Библиотека кодирования : libebml v1.3.1 + libmatroska v1.4.2

Видео
Идентификатор : 1
Формат : AVC
Формат/Информация : Advanced Video Codec
Профиль формата : High@L4.1
Параметр CABAC формата : Да
Параметр ReFrames формата : 9 кадров
Идентификатор кодека : V_MPEG4/ISO/AVC
Продолжительность : 1 ч. 30 м.
Вид битрейта : Переменный
Битрейт : 5327 Кбит/сек
Максимальный битрейт : 6000 Кбит/сек
Ширина : 1280 пикселей
Высота : 696 пикселей
Соотношение сторон : 1,85:1
Режим частоты кадров : Постоянный
Частота кадров : 23,976 (24000/1001) кадра/сек
Стандарт вещания : Component
Цветовое пространство : YUV
Субдискретизация насыщенности : 4:2:0
Битовая глубина : 8 бит
Тип развёртки : Прогрессивная
Бит/(Пиксели*Кадры) : 0.244
Размер потока : 3,31 Гбайт (90%)
Default : Да
Forced : Нет
Цветовой диапазон : Limited
Основные цвета : BT.709
Характеристики трансфера : BT.709
Коэффициенты матрицы : BT.709

Аудио
Идентификатор : 2
Формат : AC-3
Формат/Информация : Audio Coding 3
Расширение режима : CM (complete main)
Параметр Endianness формата : Big
Идентификатор кодека : A_AC3
Продолжительность : 1 ч. 30 м.
Вид битрейта : Постоянный
Битрейт : 448 Кбит/сек
Каналы : 2 канала
Расположение каналов : Front: L R
Частота : 48,0 КГц
Частота кадров : 31,250 кадров/сек (1536 spf)
Метод сжатия : С потерями
Размер потока : 292 Мбайт (8%)
Default : Да
Forced : Нет

pb.wtf



Скачать Мелкий фермер через торрент http://i102.fastpic.ru/big/2018/0116/cb/87b5e1809ea6f01240d4fb6ba11e7acb.jpg Скачать фильм Мелкий фермер через торрент бесплантно в хорошем качестве Описание: Тридцатилетний Пьер занимается разведением молочного скота. Его жизнь вращается вокруг фермы, сестры-ветеринара и пожилых ... 7 10 3
Торрент: Зарегистрирован [2018-01-16 16:24] · скачан: 27 раз
Статус: T временная
Размер: 3.67 GB
Как cкачать? Как скачать Мелкий фермер через торрент | qTorrent

% Раздел Тема Автор DL S | L
T Фильмы (мультфильмы) cо спонсором показа (Новинки AVI/MKV) [ 1.37 GB ] Мелкий фермер / Petit paysan [2017 HDRip] MVO ["Синема УС"] bober100 Скачать
1 | 0

28-11-2019 20:33  

Отключить всю рекламу на сайте

    Дорогой пользователь! Огромная просьба, поблагодарите релизера, оцените раздачу и оставьте свои комментарий, если Вы скачали Мелкий фермер через торрент бесплатно! Внесите свою лепту в развитие PiratBit!
    Комментировать посты могут только пользователи прошедшие не сложную регистрацию
    Показать сообщения:    

    Мелкий фермер через торрент
    Скачать бесплатно Мелкий фермер
    Мелкий фермер скачать торрент
    Мелкий фермер смотреть онлайн
    Cкачать фильм Мелкий фермер бесплатно
    Мелкий фермер скачать торрент в хорошем качестве
    Мелкий фермер смотреть онлайн бесплатно в хорошем качестве


    Вы не можете начинать темы
    Вы не можете отвечать на сообщения
    Вы не можете редактировать свои сообщения
    Вы не можете удалять свои сообщения
    Вы не можете голосовать в опросах
    Вы не можете прикреплять файлы к сообщениям
    Вы можете скачивать файлы