новый адрес
Мега распродажа FORZA HORIZON 4 ULTIMATE+ВСЕ DLC+ОНЛАЙН всего за 499р. 349 руб. (супер цена). Внимание количество ограничено!!!

iTunes

1+1

iTunes

мы

iTunes

1

iTunes

Чернобыль

iTunes

Ральф против интернета

Лицензия

ПШазам

Лицензия

Игра престолов

Лицензия

30
pack

ВАЖНО

!!Акция!!

Alien_RageХит недели

RePack

Resident Evil 21

ИГРА 18+

pack

RePack

Metro:Exodus

!!Акция!!

Alien_Rage

RePack

fifa19

RePack

Assassins Creed: Odyssey

RePack

NEED FOR SPEED™ PAYBACK

3 сезон

9 сезон

Бесстыжие 9 сезон

Все сериалы

все сериалы на PB.wtf

RePack

FAR CRY 5
Ребята, катастрофически не хватает 1900р. для оплаты серверов за Октябрь (всвязи с блокировками трафик упал в 3 раза), 1-2р., выручайте.
  

Мечты сбываются (Михаил Винярский) [1959, СССР, драма, SATRip от AVP Studio] pb.wtf

Мечты сбываются через торрент pb.wtf

Размер: 744 MB | Добавлен: 1 год 10 мес. назад | Торрент скачан:12 раз
Скачать  

17-01-2018 09:36 Мечты сбываются Скачать торрент  

Мечты сбываются
Страна: СССР
Производство: Одесская киностудия

Жанр: драма
Год выпуска: 1959
Продолжительность: 01:30:38

Перевод: Не требуется
Cубтитры: нет
Оригинальная аудиодорожка: русский

Режиссер: Михаил Винярский

В ролях:
Андрей Попов, Борис Чирков, Татьяна Пилецкая, Лев Золотухин, Роза Балашова, Павел Кашлаков, Иван Кузнецов, Владимир Данченко, Владимир Балашов, И. Мыльный, Дмитрий Иванов, Владимир Савельев, Валентина Франчук...
Об актёрах подробней

Описание:
На строительстве гидроузла праздник – закончено сооружение земляной плотины. На площади веселится молодёжь, кружатся юные пары. И даже сумрачное, хмурое небо, предвещающее грозу, не портит никому праздничного настроения. Лишь опытные гидростроители чувствуют опасность. Быстро поднимаются воды Днепра, начинается паводок. Прибывающая вода, просачиваясь сквозь перемычку, вот-вот снесёт эту ненадёжную преграду и затопит весь фронт работ.

Исходник: DVB
Качество видео: SATRip
Формат видео: AVI

Видео: 640х480 (4:3), 25 fps, XviD ~ 1010 kbps avg, 0.132 bit/pixel
Аудио: 48 kHz, MP3 2.0, 128 kbps

Раздача от:
Общее
Полное имя : Mechty.sbyvayutsya.1959.SATRip-745_[New-team]_by_AVP_Studio.avi
Формат : AVI
Формат/Информация : Audio Video Interleave
Размер файла : 744 Мбайт
Продолжительность : 1 ч. 30 м.
Общий поток : 1148 Кбит/сек
Программа кодирования : VirtualDubMod 1.5.10.3 | www.virtualdub-fr.org || (build 2550/release)
Библиотека кодирования : VirtualDubMod build 2550/release

Видео
Идентификатор : 0
Формат : MPEG-4 Visual
Профиль формата : Advanced Simple@L5
Настройки формата : BVOP1 / Custom Matrix
Параметр BVOP формата : 1
Параметр QPel формата : Нет
Параметр GMC формата : Без точки перехода
Параметр матрицы формата : Выборочная
Идентификатор кодека : XVID
Идентификатор кодека/Подсказка : XviD
Продолжительность : 1 ч. 30 м.
Битрейт : 1010 Кбит/сек
Ширина : 640 пикселей
Высота : 480 пикселей
Соотношение сторон : 4:3
Частота кадров : 25,000 кадров/сек
Цветовое пространство : YUV
Субдискретизация насыщенности : 4:2:0
Битовая глубина : 8 бит
Тип развёртки : Прогрессивная
Метод сжатия : С потерями
Бит/(Пиксели*Кадры) : 0.132
Размер потока : 655 Мбайт (88%)
Библиотека кодирования : XviD 73

Аудио
Идентификатор : 1
Формат : MPEG Audio
Версия формата : Version 1
Профиль формата : Layer 3
Идентификатор кодека : 55
Идентификатор кодека/Подсказка : MP3
Продолжительность : 1 ч. 30 м.
Вид битрейта : Постоянный
Битрейт : 128 Кбит/сек
Каналы : 2 канала
Частота : 48,0 КГц
Частота кадров : 41,667 кадра/сек (1152 SPF)
Метод сжатия : С потерями
Размер потока : 83,0 Мбайт (11%)
Выравнивание : Соединение по промежуткам
Продолжительность промежутка : 40 мс. (1,00 видеокадр)
Время предзагрузки промежутка : 504 мс.
Библиотека кодирования : LAME3.99r
Настройки программы : -m s -V 4 -q 2 -lowpass 17 -b 128
pb.wtf



Скачать Мечты сбываются через торрент http://i103.fastpic.ru/big/2018/0117/76/9fc4686dd8027d16a72f6cb57d496976.png Скачать фильм Мечты сбываются через торрент бесплантно в хорошем качестве Описание:На строительстве гидроузла праздник – закончено сооружение земляной плотины. На площади веселится молодёжь, кружатся юные пары. И ... 5 10 1
Info! Золотая раздача, скачанное не засчитывается.
Торрент: Зарегистрирован [2018-01-17 09:36] · скачан: 12 раз
Статус: √ проверено
Размер: 744 MB
Как cкачать? Как скачать Мечты сбываются через торрент | qTorrent

% Раздел Тема Автор DL S | L
Кино СССР [ 1.09 GB ] Мечты сбываются [1959 СССР SATRip-AVC от AVP Studio] AVP Studio Скачать
1 | 0
Кино СССР [ 1.09 GB ] Мечты сбываются [1959 СССР SATRip от AVP Studio] AVP Studio Скачать
1 | 0
Фильмы [HD 720p, 1080p] (Хороший звук DUB, MVO) [ 4.73 GB ] Мечты сбываются! / One Chance [2013 биография BDRip 720p многоголосый] кэп Скачать
1 | 0
Фильмы 2013 [DVDrip, WEB-DLRip, HDrip] [ 1.46 GB ] Мечты сбываются! / One Chance [2013 биография HDRip Профессиональное многоголосое ] Drakosha Скачать
1 | 0
Фильмы 2013 [DVDrip, WEB-DLRip, HDrip] [ 1.46 GB ] Мечты сбываются! / One Chance [2013 биография HDRip многоголосый] кэп Скачать
1 | 0
HD ролики [ 838 MB ] Мечты сбываются / Angelica [2013 All Sex Hardcore Teen HD 1080p] sheker187 Скачать
1 | 0
Фильмы [HD 720p, 1080p] (Хороший звук DUB, MVO) [ 8.8 GB ] Мечты сбываются / Deep in the Valley [2009 BDRip 1080p] MVO от R.G. nICE Films genkasper Скачать
1 | 0


>> Регистрируемся здесь <<






Отзывы и комментарии о схеме читаем и пишем здесь: ---> Отзывы и комментарии о схеме

Новые благодарочки в телеграм довольных пользователей:
скриншот   скриншот   скриншот   скриншот   скриншот
    Дорогой пользователь! Огромная просьба, поблагодарите релизера, оцените раздачу и оставьте свои комментарий, если Вы скачали Мечты сбываются через торрент бесплатно! Внесите свою лепту в развитие PiratBit!
    Комментировать посты могут только пользователи прошедшие не сложную регистрацию
    Показать сообщения:    

    Мечты сбываются через торрент
    Скачать бесплатно Мечты сбываются
    Мечты сбываются скачать торрент
    Мечты сбываются смотреть онлайн
    Cкачать фильм Мечты сбываются бесплатно
    Мечты сбываются скачать торрент в хорошем качестве
    Мечты сбываются смотреть онлайн бесплатно в хорошем качестве


    Вы не можете начинать темы
    Вы не можете отвечать на сообщения
    Вы не можете редактировать свои сообщения
    Вы не можете удалять свои сообщения
    Вы не можете голосовать в опросах
    Вы не можете прикреплять файлы к сообщениям
    Вы можете скачивать файлы