Ссылка на приватное зеркало всего за 1$. Внимание количество ограничено!!!

OK

1+1

iTunes

мы

OK

1

WEB-DLRip

Джокер

Пифагор

Ведьмак / The Witcher сериал

iTunes

ПШазам

ОК

Оно 2

iTunes

30
pack

Вам бонус

ВАЖНО

!!Акция!!

Alien_RageХит недели

RePack

Resident Evil 21

ИГРА 18+

pack

RePack

jed

RePack

fifa19

RePack

Assassins Creed: Odyssey

RePack

NEED FOR SPEED™ PAYBACK

4 сезон

9 сезон

Бесстыжие 9 сезон

Все сериалы

все сериалы на PB.wtf

RePack

FAR CRY 5
  

Побег с планеты удовольствий / Escape from Pleasure Planet (Терренс Райкер) [2016, фантастика, фэнтези, боевик, мелодрама, комедия, WEB-DL 720p] MVO ["Синема УС"] pb.wtf

Побег с планеты удовольствий через торрент pb.wtf

Размер: 2.81 GB | Добавлен: 2 года назад | Торрент скачан:221 раз
Скачать  

17-01-2018 11:31 Побег с планеты удовольствий Скачать торрент  

Побег с планеты удовольствий / Escape from Pleasure PlanetГод выпуска: 2016
Страна: США
Жанр: фантастика, фэнтези, боевик, мелодрама, комедия
Продолжительность: 01:23:05
Перевод: Любительский (многоголосый) ["Синема УС"]
Субтитры: отсутствуют

Режиссер: Терренс Райкер

rating

В ролях:

Блэр Уильямс, Ванесса Кейдж, Вероника Вейн, Эрика Джордан, Карли Монтана, Дарси Дольче, Майкл Томас, Эндрю Эспиноза Лонг, Майкл Гальо

Описание:

Эротический отпуск принцессы прерывает нападение враждебной инопланетной армии, возглавляемой её заклятым врагом, Арией. Ей и её телохранителю приходится спасаться бегством, после чего они совершают аварийную посадку на ближайшей планете, которой оказывается Земля. Там им предстоит получить совершенно новый и незабываемый опыт, с невиданной для них расой - мужчинами.

Качество: WEB-DL 720p
Формат: MKV
Видео кодек: H.264
Аудио кодек: AC3

Видео: 4461 Кбит/с, 1280x720
Аудио: AC3, 2 ch, 384 Кбит/с

скриншот   скриншот   скриншот  

Общее
Уникальный идентификатор : 186830385190339876365654899492385008642 (0x8C8E392C8B6F72ED8DE2E0106F452C02)
Полное имя : D:\Escape.from.Pleasure.Planet.2016.P.WEB-DL.72Op_KOSHARA.mkv
Формат : Matroska
Версия формата : Version 2
Размер файла : 2,81 Гбайт
Продолжительность : 1 ч. 23 м.
Режим общего битрейта : Переменный
Общий поток : 4847 Кбит/сек
Дата кодирования : UTC 2018-01-16 15:59:59
Программа кодирования : mkvmerge v8.3.0 ('Over the Horizon') 64bit
Библиотека кодирования : libebml v1.3.1 + libmatroska v1.4.2

Видео
Идентификатор : 1
Формат : AVC
Формат/Информация : Advanced Video Codec
Профиль формата : High@L4.1
Параметр CABAC формата : Да
Параметр ReFrames формата : 9 кадров
Идентификатор кодека : V_MPEG4/ISO/AVC
Продолжительность : 1 ч. 23 м.
Вид битрейта : Переменный
Битрейт : 4461 Кбит/сек
Максимальный битрейт : 5000 Кбит/сек
Ширина : 1280 пикселей
Высота : 720 пикселей
Соотношение сторон : 16:9
Режим частоты кадров : Постоянный
Частота кадров : 23,976 (24000/1001) кадра/сек
Стандарт вещания : Component
Цветовое пространство : YUV
Субдискретизация насыщенности : 4:2:0
Битовая глубина : 8 бит
Тип развёртки : Прогрессивная
Бит/(Пиксели*Кадры) : 0.198
Размер потока : 2,53 Гбайт (90%)
Default : Да
Forced : Нет
Цветовой диапазон : Limited
Основные цвета : BT.709
Характеристики трансфера : BT.709
Коэффициенты матрицы : BT.709

Аудио
Идентификатор : 2
Формат : AC-3
Формат/Информация : Audio Coding 3
Расширение режима : CM (complete main)
Параметр Endianness формата : Big
Идентификатор кодека : A_AC3
Продолжительность : 1 ч. 23 м.
Вид битрейта : Постоянный
Битрейт : 384 Кбит/сек
Каналы : 2 канала
Расположение каналов : Front: L R
Частота : 48,0 КГц
Частота кадров : 31,250 кадров/сек (1536 spf)
Метод сжатия : С потерями
Размер потока : 228 Мбайт (8%)
Default : Да
Forced : Нет

pb.wtf



Скачать Побег с планеты удовольствий через торрент http://i99.fastpic.ru/big/2018/0117/69/f4452a326f5b8185184adf94c3586669.jpg Скачать фильм Побег с планеты удовольствий через торрент бесплантно в хорошем качестве Описание: Эротический отпуск принцессы прерывает нападение враждебной инопланетной армии, возглавляемой её заклятым врагом, Арией. Ей и её ... 6.8 10 12
Торрент: Зарегистрирован [2018-01-17 11:31] · скачан: 221 раз
Статус: T временная
Размер: 2.81 GB
Как cкачать? Как скачать Побег с планеты удовольствий через торрент | qTorrent

% Раздел Тема Автор DL S | L
T Фильмы (мультфильмы) cо спонсором показа (Новинки AVI/MKV) [ 1.37 GB ] Побег с планеты удовольствий / Escape from Pleasure Planet [2016 WEB-DLRip] MVO ["Синема УС"] bober100 Скачать
2 | 0

28-11-2019 20:33  

Отключить всю рекламу на сайте

17-01-2018 11:50 Побег с планеты удовольствий Скачать торрент  

скриншот целлюлитpb.wtf



17-01-2018 11:54 Побег с планеты удовольствий Скачать торрент  

never8ending писал(а):

скриншот целлюлит

pb.wtf



17-01-2018 12:09 Побег с планеты удовольствий Скачать торрент  

дрянь редкостнаяpb.wtf



17-01-2018 13:21 Побег с планеты удовольствий Скачать торрент  

Рен тивишские филмцы начали поевляться:)pb.wtf



17-01-2018 13:32 Побег с планеты удовольствий Скачать торрент  

что за синтетика на постере и скринах.pb.wtf



17-01-2018 14:52 Побег с планеты удовольствий Скачать торрент  

sidxxl77, читая тебя, дружище, обидно становится за великий и могучий. Может, помолчал бы лучше?pb.wtf



17-01-2018 15:17 Побег с планеты удовольствий Скачать торрент  

целлюлит, подтверждаю pb.wtf



17-01-2018 17:10 Побег с планеты удовольствий Скачать торрент  

А навесы на двери из далёкого-далёкого прошлого. pb.wtf



17-01-2018 18:28 Побег с планеты удовольствий Скачать торрент  

Что вы ожидали от фильма в котором играет порно актриса? Это конечно же сиськи КАК МИНИМУМ.pb.wtf



    Дорогой пользователь! Огромная просьба, поблагодарите релизера, оцените раздачу и оставьте свои комментарий, если Вы скачали Побег с планеты удовольствий через торрент бесплатно! Внесите свою лепту в развитие PiratBit!
    Комментировать посты могут только пользователи прошедшие не сложную регистрацию
    Показать сообщения:    

    Побег с планеты удовольствий через торрент
    Скачать бесплатно Побег с планеты удовольствий
    Побег с планеты удовольствий скачать торрент
    Побег с планеты удовольствий смотреть онлайн
    Cкачать фильм Побег с планеты удовольствий бесплатно
    Побег с планеты удовольствий скачать торрент в хорошем качестве
    Побег с планеты удовольствий смотреть онлайн бесплатно в хорошем качестве


    Вы не можете начинать темы
    Вы не можете отвечать на сообщения
    Вы не можете редактировать свои сообщения
    Вы не можете удалять свои сообщения
    Вы не можете голосовать в опросах
    Вы не можете прикреплять файлы к сообщениям
    Вы можете скачивать файлы