Ссылка на приватное зеркало нашего сайта всего за 1$. Внимание количество ограничено!!!

2 сезон

iTunes

1 сезон

1

2 сезон

2 сезон

iTunes

1 сезон

RePack

30

Новинка

ВАЖНО

ИГРА 18+

pack

RePack

MK11
pack

Забери бонус

RePack

jed

!!Акция!!

Alien_Rage

RePack

fifa19

RePack

Assassins Creed: Odyssey

RePack

NEED FOR SPEED™ PAYBACK

4 сезон

9 сезон

Бесстыжие 9 сезон

Все сериалы

все сериалы на PB.wtf

RePack

FAR CRY 5
  

Жан-Клод Ван Джонсон / Jean-Claude Van Johnson / Сезон: 1 / Серии 1-6 из 6 (Питер Атенсио / Peter Atencio) [2017, комедия, WEBRip 720p] [VO] (Кубик в Кубе) pb.wtf

Жан-Клод Ван Джонсон через торрент pb.wtf

Размер: 5.29 GB | Добавлен: 2 года 10 мес. назад | Торрент скачан:47 раз
Скачать  

17-01-2018 12:00 Жан-Клод Ван Джонсон Скачать торрент  

Жан-Клод Ван Джонсон / Jean-Claude Van Johnson Год выпуска: 2017
Страна: США
Жанр: комедия
Продолжительность: ~00:30:00
Перевод: Профессиональный (одноголосый закадровый) | Кубик в Кубе
Субтитры: английские

Режиссёр: Питер Атенсио / Peter Atencio

В ролях: Жан-Клод Ван Дамм, Кэт Фостер, Мойзес Ариас, Филисия Рашад, Бар Пали, Тим Пепер, Дерен Лерой, Кевин Майкл Уолш, Тейт Флетчер, Стэйси Дейнджер

Описание: Создатели нового сериала «Жан-Клод Ван Джонсон» пытаются убедить зрителя в том, что на самом деле под всем известной фамилией Ван Дамм скрывается спецагент по фамилии Джонсон, который использует внешний вид актера исключительно для работы под прикрытием и успешного выполнения различных секретных операций. А свое очередное задание Джонсон выполняет, снимаясь в необычной версии «Приключений Гекельберри Финна».



Релиз --
Работа со звуком: messafan

Качество: WEBRip 720p
Контейнер: MKV
Видео: 1280x534 at 23.976 fps, MPEG-4 AVC, ~3000 kbps avg
Аудио Rus: 48 kHz, AC3, 3/2 (L,C,R,l,r) + LFE ch, ~640.00 kbps avg | Кубик в Кубе
Аудио Eng: 48 kHz, E-AC-3, 3/2 (L,C,R,l,r) + LFE ch, ~640.00 kbps avg
скриншот  скриншот  скриншот  
General
Unique ID : 218859186569488017894774705489288556777 (0xA4A6BF0087BE775B9CAD56CB1E6EF0E9)
Complete name : E:\Jean-Claude.Van.Johnson.S01.720p.WEBRip.KvK.CasStudio.TV\Jean-Claude.Van.Johnson.S01E01.Pilot.720p.WEBRip.KvK.CasStudio.TV.mkv
Format : Matroska
Format version : Version 4 / Version 2
File size : 924 MiB
Duration : 30 min 9 s
Overall bit rate : 4 283 kb/s
Movie name : Jean-Claude Van Johnson 01x01 (Pilot) - release by messafan for CasStudio.TV
Encoded date : UTC 2018-01-17 10:07:30
Writing application : mkvmerge v6.7.0 ('Back to the Ground') 64bit built on Jan 8 2014 15:10:52
Writing library : libebml v1.3.0 + libmatroska v1.4.1

Video
ID : 1
Format : AVC
Format/Info : Advanced Video Codec
Format profile : High@L4.1
Format settings : CABAC / 12 Ref Frames
Format settings, CABAC : Yes
Format settings, RefFrames : 12 frames
Codec ID : V_MPEG4/ISO/AVC
Duration : 30 min 9 s
Bit rate : 2 918 kb/s
Width : 1 280 pixels
Height : 534 pixels
Display aspect ratio : 2.40:1
Frame rate mode : Constant
Frame rate : 23.976 (24000/1001) FPS
Color space : YUV
Chroma subsampling : 4:2:0
Bit depth : 8 bits
Scan type : Progressive
Bits/(Pixel*Frame) : 0.178
Stream size : 630 MiB (68%)
Writing library : x264 core 152 r2851kMod ba24899
Encoding settings : cabac=1 / ref=12 / deblock=1:-3:-3 / analyse=0x3:0x133 / me=umh / subme=10 / psy=1 / fade_compensate=0.00 / psy_rd=1.00:0.00 / mixed_ref=1 / me_range=48 / chroma_me=1 / trellis=2 / 8x8dct=1 / cqm=0 / deadzone=21,11 / fast_pskip=0 / chroma_qp_offset=-2 / threads=12 / lookahead_threads=2 / sliced_threads=0 / nr=0 / decimate=0 / interlaced=0 / bluray_compat=0 / constrained_intra=0 / bframes=8 / b_pyramid=2 / b_adapt=2 / b_bias=0 / direct=3 / weightb=1 / open_gop=0 / weightp=2 / keyint=250 / keyint_min=23 / scenecut=40 / intra_refresh=0 / rc=crf / mbtree=0 / crf=16.0000 / qcomp=0.60 / qpmin=0 / qpmax=69 / qpstep=4 / ip_ratio=1.30 / pb_ratio=1.20 / aq=3:0.80
Language : English
Default : Yes
Forced : No

Audio #1
ID : 2
Format : AC-3
Format/Info : Audio Coding 3
Format settings, Endianness : Big
Codec ID : A_AC3
Duration : 30 min 9 s
Bit rate mode : Constant
Bit rate : 640 kb/s
Channel(s) : 6 channels
Channel positions : Front: L C R, Side: L R, LFE
Sampling rate : 48.0 kHz
Frame rate : 31.250 FPS (1536 SPF)
Bit depth : 16 bits
Compression mode : Lossy
Stream size : 138 MiB (15%)
Title : KvK DD5.1 @ 640kbps
Language : Russian
Service kind : Complete Main
Default : Yes
Forced : No

Audio #2
ID : 3
Format : AC-3
Format/Info : Audio Coding 3
Format settings, Endianness : Big
Codec ID : A_AC3
Duration : 30 min 9 s
Bit rate mode : Constant
Bit rate : 640 kb/s
Channel(s) : 6 channels
Channel positions : Front: L C R, Side: L R, LFE
Sampling rate : 48.0 kHz
Frame rate : 31.250 FPS (1536 SPF)
Bit depth : 16 bits
Compression mode : Lossy
Stream size : 138 MiB (15%)
Title : English DD5.1 @ 640kbps
Language : English
Service kind : Complete Main
Default : No
Forced : No

Text
ID : 4
Format : UTF-8
Codec ID : S_TEXT/UTF8
Codec ID/Info : UTF-8 Plain Text
Title : Eng sub
Language : English
Default : No
Forced : No

Menu
00:00:00.000 : en:Amazon Original
00:00:05.000 : en:Jean-Claude Van Damme introduces himself, Title Sequence
00:01:18.000 : en:Jean-Claude Van Damme begins his day
00:03:09.000 : en:JC runs into Vanessa
00:06:20.000 : en:Jane is ecstatic to have Jean-Claude back
00:09:27.000 : en:JC trains for his mission
00:10:03.000 : en:JC arrives in Bulgaria
00:12:43.000 : en:JC struggles with the fight scenes
00:18:11.000 : en:JC breaks into the warehouse
00:23:55.000 : en:JC goes back for his script
00:27:18.000 : en:Jean-Claude rushes back to meet Vanessa
00:29:07.000 : en:End Credits
Внимание! Раздача ведётся путём добавления новых серий; при каждом добавлении создаётся новый торрент. Чтобы начать докачку новой серии, пользователям необходимо сделать следующее:
(1) остановить скачивание,
(2) удалить старый торрент у себя из клиента (старые серии удалять не надо),
(3) скачать новый торрент и запустить его у себя в клиенте вместо старого, при этом указать клиенту путь в старую папку куда и должно происходить скачивание новых серий.

Ваш клиент при этом должен произвести хеширование (проверку) старой папки (если не производит сам - помогите ему сделать это), и будет докачивать только те серии которых у вас ещё нет. Старые серии при этом не удаляются, а продолжают раздаваться!

Eсли вы уже удалили старые серии, то предотвратить повторную закачку старых серий можно, отжав галочку в соответствующих местах при запуске нового торрента. По возможности, желательно не удалять старые серии как можно дольше чтобы релизёр не столько продолжал раздавать старые серии, а смог сконцентрироваться на новых.
pb.wtf



Скачать Жан-Клод Ван Джонсон через торрент http://i85.fastpic.ru/big/2016/0902/4c/214e36a9c6afc73e741d505400b2bb4c.jpg Скачать фильм Жан-Клод Ван Джонсон через торрент бесплантно в хорошем качестве Описание: Создатели нового сериала «Жан-Клод Ван Джонсон» пытаются убедить зрителя в том, что на самом деле под всем известной фамилией Ван ... 5.4 10 5
Торрент: Зарегистрирован [2018-01-19 13:51] · скачан: 47 раз
Статус: √ проверено
Размер: 5.29 GB
Как cкачать? Как скачать Жан-Клод Ван Джонсон через торрент | qTorrent

% Раздел Тема Автор DL S | L
Зарубежные сериалы [ 2.24 GB ] Жан-Клод Ван Джонсон / Jean-Claude Van Johnson / Сезон 1 / Серии 1-6 из 6 [2017 WEB-DLRip] MVO [LostFilm] bober100 Скачать
1 | 0
Зарубежные сериалы [ 2.06 GB ] Жан-Клод Ван Джонсон / Jean-Claude Van Johnson / Сезон: 1 / Серии 1-6 из 6 [2017 WEB-DLRip] [MVO] killermax2013 Скачать
1 | 0
Зарубежные сериалы [ 6.21 GB ] Жан-Клод Ван Джонсон / Jean-Claude Van Johnson / Сезон 1 / Серии 1-6 из 6 [2017 WEB-DL 1080p] MVO [NewStudio] bober100 Скачать
1 | 0
Зарубежные сериалы [ 6.33 GB ] Жан-Клод Ван Джонсон / Jean-Claude Van Johnson / Сезон: 1 / Серии 1-6 из 6 [2017 WEBRip 1080p] MVO [BaibaKo] GEKADOL Скачать
1 | 0
Зарубежные сериалы [ 3.03 GB ] Жан-Клод Ван Джонсон / Jean-Claude Van Johnson / Сезон 1 / Серии 1-6 из 6 [2017 WEBRip 720p] MVO [BaibaKo] bober100 Скачать
1 | 0
Зарубежные сериалы [ 2.01 GB ] Жан-Клод Ван Джонсон / Jean-Claude Van Johnson / Сезон: 1 / Серии 1-6 из 6 [2017 WEBRip] MVO [BaibaKo] GEKADOL Скачать
1 | 0
Зарубежные сериалы [ 9.77 GB ] Жан-Клод Ван Джонсон / Jean-Claude Van Johnson / Сезон 1 / Серии 1-6 из 6 [2017 WEBRip 1080p] MVO [IdeaFilm] bober100 Скачать
1 | 0

28-11-2019 20:33  

Отключить всю рекламу на сайте

19-01-2018 14:43 Жан-Клод Ван Джонсон Скачать торрент  

смотрел вступление класс. авот 2 последних сериии отстой!pb.wtf



    Дорогой пользователь! Огромная просьба, поблагодарите релизера, оцените раздачу и оставьте свои комментарий, если Вы скачали Жан-Клод Ван Джонсон через торрент бесплатно! Внесите свою лепту в развитие PiratBit!
    Комментировать посты могут только пользователи прошедшие не сложную регистрацию
    Показать сообщения:    

    Жан-Клод Ван Джонсон через торрент
    Скачать бесплатно Жан-Клод Ван Джонсон
    Жан-Клод Ван Джонсон скачать торрент
    Жан-Клод Ван Джонсон смотреть онлайн
    Cкачать фильм Жан-Клод Ван Джонсон бесплатно
    Жан-Клод Ван Джонсон скачать торрент в хорошем качестве
    Жан-Клод Ван Джонсон смотреть онлайн бесплатно в хорошем качестве


    Вы не можете начинать темы
    Вы не можете отвечать на сообщения
    Вы не можете редактировать свои сообщения
    Вы не можете удалять свои сообщения
    Вы не можете голосовать в опросах
    Вы не можете прикреплять файлы к сообщениям
    Вы можете скачивать файлы