Ссылка на приватное зеркало нашего сайта всего за 1$. Внимание количество ограничено!!!

2 сезон

iTunes

1 сезон

1

2 сезон

2 сезон

iTunes

1 сезон

RePack

30

Ultimate

ВАЖНО

ИГРА 18+

pack

RePack

MK11
pack

Забери бонус

RePack

jed

!!Акция!!

Alien_Rage

RePack

fifa19

RePack

Assassins Creed: Odyssey

RePack

NEED FOR SPEED™ PAYBACK

4 сезон

9 сезон

Бесстыжие 9 сезон

Все сериалы

все сериалы на PB.wtf

RePack

FAR CRY 5
  

Из Лос-Анджелеса в Вегас / LA To Vegas / Сезон: 1 / Серии: 1-15 из 15 (Стивен Левитан, Линда Мендоса, Джон Ригги) [2017, комедия, WEB-DL 720p] MVO [FOX] pb.wtf

Из Лос-Анджелеса в Вегас через торрент pb.wtf

Размер: 8.85 GB | Добавлен: 10 мес. назад | Торрент скачан:2 раза
Скачать  

17-01-2018 15:20 Из Лос-Анджелеса в Вегас Скачать торрент  

Из Лос-Анджелеса в Вегас | LA To Vegas Год выпуска: 2017
Страна: США
Жанр: комедия
Продолжительность: ~ 00:23:00
Перевод: Профессиональный (многоголосый) | FOX
Субтитры: английские

Режиссер: Стивен Левитан, Линда Мендоса, Джон Ригги

rating


В ролях: Петер Стормаре, Дилан МакДермотт, Нэйтан Кресс, Кимберли Матула, Алекс Фринка, Эд Викс, Виктория Парк, Нэйтан Ли Грэхэм, Сара Кортес, Амир Талай и др.

Описание: В центре сюжета компания неутомимых авантюристов. Последние годы каждого из них преследовала череда неудач, но они решили использовать свой последний шанс вытянуть счастливый билет. На последние сбережения они отправляются в город, где сбываются мечты Лас-Вегас. Каждый из героев планирует разбогатеть и начать новую жизнь. Исполнит ли заветный авиарейс из Лос-Анджелеса в Вегас их желания или неудачники потерпят очередной провал. Не только у пассажиров большие планы на эту поездку.

Качество: WEB-DL 720p
Формат: MKV
Видео кодек: H.264
Аудио кодек: AC3

Видео: MPEG-4 AVC, 1280x720, 25.000 fps, ~3747 kbps
Аудио#1: русская |FOX|: 48 kHz, AC3, 2/0 (L,R) ch, ~192 kbps avg
Аудио#2: английская |Оригинал|: 48 kHz, E-AC3, 3/2 (L,C,R,l,r) + LFE ch, ~640 kbps avg
скриншот  скриншот  скриншот  скриншот  скриншот  

General
Unique ID : 53590597235095132313379055399442390317 (0x28512C70BD489532FA19FF4A0CB91D2D)
Complete name : E:\Video\HD\LA.to.Vegas.S01.720p.AMZN.WEB-DL.Rus.Eng-v.serij2013\LA.to.Vegas.S01E01.Pilot.720p.AMZN.WEB-DL.Rus.Eng-v.serij2013.mkv
Format : Matroska
Format version : Version 4 / Version 2
File size : 715 MiB
Duration : 21mn 23s
Overall bit rate mode : Variable
Overall bit rate : 4 672 Kbps
Encoded date : UTC 2020-01-21 03:46:54
Writing application : mkvmerge v20.0.0 ('I Am The Sun') 32-bit
Writing library : libebml v1.3.5 + libmatroska v1.4.8
DURATION : 00:21:23.648000000
NUMBER_OF_FRAMES : 40114
NUMBER_OF_BYTES : 30807552
_STATISTICS_WRITING_APP : mkvmerge v20.0.0 ('I Am The Sun') 32-bit
_STATISTICS_WRITING_DATE_UTC : 2020-01-21 03:46:54
_STATISTICS_TAGS : BPS DURATION NUMBER_OF_FRAMES NUMBER_OF_BYTES

Video
ID : 1
Format : AVC
Format/Info : Advanced Video Codec
Format profile : High@L3.1
Format settings, CABAC : Yes
Format settings, ReFrames : 5 frames
Codec ID : V_MPEG4/ISO/AVC
Duration : 21mn 23s
Bit rate mode : Variable
Bit rate : 3 747 Kbps
Maximum bit rate : 4 500 Kbps
Width : 1 280 pixels
Height : 720 pixels
Display aspect ratio : 16:9
Frame rate mode : Constant
Frame rate : 25.000 fps
Color space : YUV
Chroma subsampling : 4:2:0
Bit depth : 8 bits
Scan type : Progressive
Bits/(Pixel*Frame) : 0.163
Stream size : 573 MiB (80%)
Language : English
Default : Yes
Forced : No
Color primaries : BT.709
Transfer characteristics : BT.709
Matrix coefficients : BT.709
Color range : Limited

Audio #1
ID : 2
Format : AC-3
Format/Info : Audio Coding 3
Mode extension : CM (complete main)
Format settings, Endianness : Big
Codec ID : A_AC3
Duration : 21mn 23s
Bit rate mode : Constant
Bit rate : 192 Kbps
Channel(s) : 2 channels
Channel positions : Front: L R
Sampling rate : 48.0 KHz
Bit depth : 16 bits
Compression mode : Lossy
Stream size : 29.4 MiB (4%)
Title : MVO (FOX)
Language : Russian
Default : Yes
Forced : No

Audio #2
ID : 3
Format : E-AC-3
Format/Info : Audio Coding 3
Format settings, Endianness : Big
Codec ID : A_EAC3
Duration : 21mn 23s
Bit rate mode : Constant
Bit rate : 640 Kbps
Channel(s) : 6 channels
Channel positions : Front: L C R, Side: L R, LFE
Sampling rate : 48.0 KHz
Compression mode : Lossy
Stream size : 97.9 MiB (14%)
Title : Original
Language : English
Default : No
Forced : No

Text
ID : 4
Format : UTF-8
Codec ID : S_TEXT/UTF8
Codec ID/Info : UTF-8 Plain Text
Title : Full (SDH)
Language : English
Default : No
Forced : No

Когда раздача ведётся путём добавления новых серий, при каждом добавлении создётся новый торрент. Чтобы начать докачку новой серии, пользователям необходимо сделать следующее:
(1) остановить скачивание,
(2) удалить старый торрент у себя из клиента (старые серии удалять не надо),
(3) скачать новый торрент и запустить его у себя в клиенте вместо старого, при этом указать клиенту путь в старую папку, куда и должно происходить скачивание новых серий.
Ваш клиент при этом должен произвести хеширование (проверку) старой папки (если не производит сам - помогите ему сделать это), и будет докачивать только те серии, которых у вас ещё нет. Старые серии при этом не удаляются, а продолжают раздаваться!
Eсли вы уже удалили старые серии, то предотвратить повторную закачку старых серий можно, отжав галочку в соответсвующих местах при запуске нового торрента. По возможности, желательно не удалять старые серии как можно дольше, чтобы релизёр не столько продолжал раздавать старые серии, а смог сконцентрироваться на новых.
pb.wtf



Скачать Из Лос-Анджелеса в Вегас через торрент https://c.radikal.ru/c15/2001/29/75969ec10936.jpg Скачать фильм Из Лос-Анджелеса в Вегас через торрент бесплантно в хорошем качестве Описание: В центре сюжета компания неутомимых авантюристов. Последние годы каждого из них преследовала череда неудач, но они решили ... 10 10 4
Торрент: Зарегистрирован [2020-01-24 13:34] · скачан: 2 раз
Статус: √ проверено
Размер: 8.85 GB
Как cкачать? Как скачать Из Лос-Анджелеса в Вегас через торрент | qTorrent

% Раздел Тема Автор DL S | L
Зарубежные сериалы [ 29.3 GB ] Из Лос-Анджелеса в Вегас / LA To Vegas / Сезон: 1 / Серии: 1-15 из 15 [2017 WEB-DL 1080p] MVO [FOX] bober100 Скачать
1 | 0
Зарубежные сериалы [ 8.88 GB ] Из Лос-Анджелеса в Вегас / LA To Vegas / Сезон: 1 / Серии: 1-15 из 15 [2017 WEBRip 720p] MVO [Jaskier] bober100 Скачать
1 | 0
Зарубежные сериалы [ 15.27 GB ] Из Лос-Анджелеса в Вегас / LA To Vegas / Сезон: 1 / Серии: 1-15 из 15 [2017 WEBRip 1080p] MVO [BaibaKo] bober100 Скачать
1 | 0
Зарубежные сериалы [ 4.12 GB ] Из Лос-Анджелеса в Вегас / LA To Vegas / Сезон: 1 / Серии: 1-15 из 15 [2017 WEB-DLRip] MVO [FOX] bober100 Скачать
1 | 0
Зарубежные сериалы [ 4.11 GB ] Из Лос-Анджелеса в Вегас / LA To Vegas / Сезон: 1 / Серии: 1-15 из 15 [2017 WEBRip] MVO [Jaskier] bober100 Скачать
1 | 0
Зарубежные сериалы [ 28.94 GB ] Из Лос-Анджелеса в Вегас / LA To Vegas / Сезон: 1 / Серии: 1-15 из 15 [2017 WEBRip 1080p] MVO [Jaskier] bober100 Скачать
1 | 0
Зарубежные сериалы [ 10.75 GB ] Из Лос-Анджелеса в Вегас / LA to Vegas / Сезон: 1 / Серии 1-15 из 15 [2018 WEBRip 720p] MVO [BaibaKo] GEKADOL Скачать
1 | 1

28-11-2019 20:33  

Отключить всю рекламу на сайте

    Дорогой пользователь! Огромная просьба, поблагодарите релизера, оцените раздачу и оставьте свои комментарий, если Вы скачали Из Лос-Анджелеса в Вегас через торрент бесплатно! Внесите свою лепту в развитие PiratBit!
    Комментировать посты могут только пользователи прошедшие не сложную регистрацию
    Показать сообщения:    

    Из Лос-Анджелеса в Вегас через торрент
    Скачать бесплатно Из Лос-Анджелеса в Вегас
    Из Лос-Анджелеса в Вегас скачать торрент
    Из Лос-Анджелеса в Вегас смотреть онлайн
    Cкачать фильм Из Лос-Анджелеса в Вегас бесплатно
    Из Лос-Анджелеса в Вегас скачать торрент в хорошем качестве
    Из Лос-Анджелеса в Вегас смотреть онлайн бесплатно в хорошем качестве


    Вы не можете начинать темы
    Вы не можете отвечать на сообщения
    Вы не можете редактировать свои сообщения
    Вы не можете удалять свои сообщения
    Вы не можете голосовать в опросах
    Вы не можете прикреплять файлы к сообщениям
    Вы можете скачивать файлы