Ссылка на приватное зеркало нашего сайта всего за 1$. Внимание количество ограничено!!!

2 сезон

iTunes

1 сезон

1

2 сезон

2 сезон

iTunes

1 сезон

RePack

30

Ultimate

ВАЖНО

ИГРА 18+

pack

RePack

MK11
pack

Забери бонус

RePack

jed

!!Акция!!

Alien_Rage

RePack

fifa19

RePack

Assassins Creed: Odyssey

RePack

NEED FOR SPEED™ PAYBACK

4 сезон

9 сезон

Бесстыжие 9 сезон

Все сериалы

все сериалы на PB.wtf

RePack

FAR CRY 5
  

Мост / Bron/Broen / Сезон: 4 / Серии: 1-8 из 8 (Хенрик Георгссон , Румле Хаммерих , Шарлотта Зилинг) [2018, триллер, криминал, детектив, HDTVRip] MVO [Jaskier] pb.wtf

Мост через торрент pb.wtf

Размер: 5.78 GB | Добавлен: 2 года 6 мес. назад | Торрент скачан:42 раза
Скачать  

17-01-2018 17:37 Мост Скачать торрент  

Мост / Bron/BroenГод выпуска: 2018
Страна: Швеция, Дания, Германия
Жанр: триллер, криминал, детектив
Продолжительность: ~01:00:00 серия
Перевод: Профессиональный многоголосый | Jaskier
Субтитры: отсутствуют

Режиссер: Хенрик Георгссон , Румле Хаммерих , Шарлотта Зилинг

rating

В ролях:

София Хелин (Saga Norén), Ким Бодния (Martin), Туре Линдхардт (Henrik), Даг Малмберг (Hans), Сара Боберг (Lillian), Рафаэль Петтерссон (John), Гэбриел Флорес Жаир (Obducent), Ребека Баркланд (Body Double Saga), Пак Шарбау (Mette), Ларс Симонсен (Jens), Хенрик Лундстрем (Rasmus), Клас Картеруд (Paramedics)

Описание:

Четвертый и заключительный сезон атмосферного детектива – новая головоломка и очередное высказывание о скрытых пороках далеко не идеального скандинавского социума. После событий прошлого сезона прошло около двух лет. Карьера и будущее детектива Саги Норен оказываются буквально в шаге от краха – ее подозревают в страшном преступлении. Однако финальному делу все равно быть, и оно станет незабываемым во всех отношениях. Героиня воссоединится со своим партнером Хенриком, и это станет проверкой их особой духовной связи. По словам создателей, прощаться с Сагой грустно, но финал так хорош, что оно того стоит.

Качество: HDTVRip
Формат: AVI

Видео: XviD, ~ 1500 kbps, 720x400 (16:9), 25,000 fps
Аудио#1: MP3, 48,0 КГц, 2 ch, 128 kbps - Rus
Аудио#2: MP3, 48,0 КГц, 2 ch, 128 kbps - Eng
скриншот   скриншот   скриншот  

Общее
Полное имя : D:\Broen Season 4 (HDTVRip l 400p l Jaskier)\Broen.S04E01.HDTVRip.Jaskier.Rus.Dan.avi
Формат : AVI
Формат/Информация : Audio Video Interleave
Размер файла : 723 Мбайт
Продолжительность : 57 м. 4 с.
Общий поток : 1772 Кбит/сек
Программа кодирования : VirtualDubMod 1.5.10.3 | www.virtualdub-fr.org || (build 2550/release)
Библиотека кодирования : VirtualDubMod build 2550/release

Видео
Идентификатор : 0
Формат : MPEG-4 Visual
Профиль формата : Advanced Simple@L5
Параметр BVOP формата : 2
Параметр QPel формата : Нет
Параметр GMC формата : Без точки перехода
Параметр матрицы формата : Default (MPEG)
Идентификатор кодека : XVID
Идентификатор кодека/Подсказка : XviD
Продолжительность : 57 м. 4 с.
Битрейт : 1501 Кбит/сек
Ширина : 720 пикселей
Высота : 400 пикселей
Соотношение сторон : 16:9
Частота кадров : 25,000 кадров/сек
Цветовое пространство : YUV
Субдискретизация насыщенности : 4:2:0
Битовая глубина : 8 бит
Тип развёртки : Прогрессивная
Метод сжатия : С потерями
Бит/(Пиксели*Кадры) : 0.209
Размер потока : 613 Мбайт (85%)
Библиотека кодирования : XviD 1.2.1 (UTC 2008-12-04)

Аудио #1
Идентификатор : 1
Формат : MPEG Audio
Версия формата : Version 1
Профиль формата : Layer 3
Режим : Joint stereo
Расширение режима : MS Stereo
Идентификатор кодека : 55
Идентификатор кодека/Подсказка : MP3
Продолжительность : 57 м. 4 с.
Вид битрейта : Постоянный
Битрейт : 128 Кбит/сек
Каналы : 2 канала
Частота : 48,0 КГц
Метод сжатия : С потерями
Размер потока : 52,3 Мбайт (7%)
Выравнивание : Соединение по промежуткам
Продолжительность промежутка : 40 мс. (1,00 видеокадр)
Время предзагрузки промежутка : 504 мс.
Библиотека кодирования : LAME3.100Є

Аудио #2
Идентификатор : 2
Формат : MPEG Audio
Версия формата : Version 1
Профиль формата : Layer 3
Режим : Joint stereo
Расширение режима : MS Stereo
Идентификатор кодека : 55
Идентификатор кодека/Подсказка : MP3
Продолжительность : 57 м. 4 с.
Вид битрейта : Постоянный
Битрейт : 128 Кбит/сек
Каналы : 2 канала
Частота : 48,0 КГц
Метод сжатия : С потерями
Размер потока : 52,3 Мбайт (7%)
Выравнивание : Соединение по промежуткам
Продолжительность промежутка : 40 мс. (1,00 видеокадр)
Время предзагрузки промежутка : 504 мс.
Библиотека кодирования : LAME3.100Є

Когда раздача ведётся путём добавления новых серий, при каждом добавлении создётся новый торрент. Чтобы начать докачку новой серии, пользователям необходимо сделать следующее:
(1) остановить скачивание,
(2) удалить старый торрент у себя из клиента (старые серии удалять не надо),
(3) скачать новый торрент и запустить его у себя в клиенте вместо старого, при этом указать клиенту путь в старую папку, куда и должно происходить скачивание новых серий.
Ваш клиент при этом должен произвести хеширование (проверку) старой папки (если не производит сам - помогите ему сделать это), и будет докачивать только те серии, которых у вас ещё нет. Старые серии при этом не удаляются, а продолжают раздаваться!
Eсли вы уже удалили старые серии, то предотвратить повторную закачку старых серий можно, отжав галочку в соответсвующих местах при запуске нового торрента. По возможности, желательно не удалять старые серии как можно дольше, чтобы релизёр не столько продолжал раздавать старые серии, а смог сконцентрироваться на новых.
pb.wtf



Скачать Мост через торрент http://i100.fastpic.ru/big/2018/0117/9f/68bdb0584d69e4ba05cb7c94c7244a9f.png Скачать фильм Мост через торрент бесплантно в хорошем качестве Описание: Четвертый и заключительный сезон атмосферного детектива – новая головоломка и очередное высказывание о скрытых пороках далеко не ... 10 10 3
Торрент: Зарегистрирован [2018-04-26 20:57] · скачан: 42 раз
Статус: √ проверено
Размер: 5.78 GB
Как cкачать? Как скачать Мост через торрент | qTorrent

% Раздел Тема Автор DL S | L
Зарубежные сериалы [ 21.33 GB ] Мост / Bron/Broen / Сезон 4 / Серии 1-8 из 8 [2018 HDTV 1080p] MVO [Novamedia] bober100 Скачать
1 | 0
Зарубежные сериалы [ 8.45 GB ] Мост / Bron/Broen / Сезон 4 / Серии 1-8 из 8 [2018 HDTVRip 720p] MVO [Novamedia] bober100 Скачать
1 | 0
Зарубежные сериалы [ 5.47 GB ] Мост / Bron/Broen / Сезон 4 / Серии 1-8 из 8 [2018 HDTVRip] MVO [Novamedia] bober100 Скачать
1 | 0
Зарубежные сериалы [ 8.88 GB ] Мост / Bron/Broen / Сезон: 4 / Серии: 1-8 из 8 [2018 HDTVRip 720p] MVO [Jaskier] bober100 Скачать
1 | 0

28-11-2019 20:33  

Отключить всю рекламу на сайте

    Дорогой пользователь! Огромная просьба, поблагодарите релизера, оцените раздачу и оставьте свои комментарий, если Вы скачали Мост через торрент бесплатно! Внесите свою лепту в развитие PiratBit!
    Комментировать посты могут только пользователи прошедшие не сложную регистрацию
    Показать сообщения:    

    Мост через торрент
    Скачать бесплатно Мост
    Мост скачать торрент
    Мост смотреть онлайн
    Cкачать фильм Мост бесплатно
    Мост скачать торрент в хорошем качестве
    Мост смотреть онлайн бесплатно в хорошем качестве


    Вы не можете начинать темы
    Вы не можете отвечать на сообщения
    Вы не можете редактировать свои сообщения
    Вы не можете удалять свои сообщения
    Вы не можете голосовать в опросах
    Вы не можете прикреплять файлы к сообщениям
    Вы можете скачивать файлы