Ссылка на приватное зеркало всего за 1$. Внимание количество ограничено!!!

OK

1+1

iTunes

мы

OK

1

WEB-DLRip

Джокер

Пифагор

Ведьмак / The Witcher сериал

iTunes

ПШазам

ОК

Оно 2

iTunes

30
pack

Вам бонус

ВАЖНО

!!Акция!!

Alien_RageХит недели

RePack

Resident Evil 21

ИГРА 18+

pack

RePack

jed

RePack

fifa19

RePack

Assassins Creed: Odyssey

RePack

NEED FOR SPEED™ PAYBACK

4 сезон

9 сезон

Бесстыжие 9 сезон

Все сериалы

все сериалы на PB.wtf

RePack

FAR CRY 5
  

Американский дьявол / American Satan (Эш Эвилдсен) [2017, триллер, драма, музыка, WEB-DL 720p] MVO ["Синема УС"] pb.wtf

Американский дьявол через торрент pb.wtf

Размер: 3.76 GB | Добавлен: 2 года назад | Торрент скачан:66 раз
Скачать  

17-01-2018 18:42 Американский дьявол Скачать торрент  

Американский дьявол / American SatanГод выпуска: 2017
Страна: США
Жанр: триллер, драма, музыка
Продолжительность: 01:53:07
Перевод: Любительский (многоголосый) ["Синема УС"]
Субтитры: отсутствуют

Режиссер: Эш Эвилдсен

rating

В ролях:

Дениз Ричардс, Малкольм МакДауэлл, Бу Бу Стюарт, Патрик Малдун, Марк Бун Джуниор, Тори Блэк, Себастьян Бах, Билл Дьюк, Дрейк Белл, Билл Голдберг

Описание:

Молодые музыканты бросают колледж и отправляются в Голливуд, на встречу мечте. Как бы они ни были талантливы, но средств на жизнь не хватает: группе приходится жить в фургоне. Загадочный незнакомец видит в них огромный потенциал и, манипулируя их чувствами в момент слабости, заставляет заключить сделку с дьяволом. Теперь их музыка в буквальном смысле может изменить мир, но смогут ли музыканты вернуть контроль над собственной жизнью, пока не стало слишком поздно?

Качество: WEB-DL 720p
Формат: MKV
Видео кодек: H.264
Аудио кодек: AC3

Видео: 4374 Кбит/с, 1280x532
Аудио#1: AC3, 2 ch, 384 Кбит/с

скриншот  скриншот  

Общее
Уникальный идентификатор : 226349312807049430788735832695295458562 (0xAA494ABCC104052EBE616F066AC43D02)
Полное имя : D:\American.Satan.2018.P.WEB-DL.72Op_KOSHARA.mkv
Формат : Matroska
Версия формата : Version 2
Размер файла : 3,76 Гбайт
Продолжительность : 1 ч. 53 м.
Режим общего битрейта : Переменный
Общий поток : 4760 Кбит/сек
Дата кодирования : UTC 2018-01-17 14:04:00
Программа кодирования : mkvmerge v8.3.0 ('Over the Horizon') 64bit
Библиотека кодирования : libebml v1.3.1 + libmatroska v1.4.2

Видео
Идентификатор : 1
Формат : AVC
Формат/Информация : Advanced Video Codec
Профиль формата : High@L4.1
Параметр CABAC формата : Да
Параметр ReFrames формата : 12 кадров
Идентификатор кодека : V_MPEG4/ISO/AVC
Продолжительность : 1 ч. 53 м.
Вид битрейта : Переменный
Битрейт : 4374 Кбит/сек
Максимальный битрейт : 4800 Кбит/сек
Ширина : 1280 пикселей
Высота : 532 пикселя
Соотношение сторон : 2,40:1
Режим частоты кадров : Постоянный
Частота кадров : 23,976 (24000/1001) кадра/сек
Стандарт вещания : Component
Цветовое пространство : YUV
Субдискретизация насыщенности : 4:2:0
Битовая глубина : 8 бит
Тип развёртки : Прогрессивная
Бит/(Пиксели*Кадры) : 0.262
Размер потока : 3,38 Гбайт (90%)
Default : Да
Forced : Нет
Цветовой диапазон : Limited
Основные цвета : BT.709
Характеристики трансфера : BT.709
Коэффициенты матрицы : BT.709

Аудио
Идентификатор : 2
Формат : AC-3
Формат/Информация : Audio Coding 3
Расширение режима : CM (complete main)
Параметр Endianness формата : Big
Идентификатор кодека : A_AC3
Продолжительность : 1 ч. 53 м.
Вид битрейта : Постоянный
Битрейт : 384 Кбит/сек
Каналы : 2 канала
Расположение каналов : Front: L R
Частота : 48,0 КГц
Частота кадров : 31,250 кадров/сек (1536 spf)
Метод сжатия : С потерями
Размер потока : 311 Мбайт (8%)
Default : Да
Forced : Нет

pb.wtf



Скачать Американский дьявол через торрент http://i101.fastpic.ru/big/2018/0117/61/3fc2ab8153c30721df36f53653b9fe61.jpg Скачать фильм Американский дьявол через торрент бесплантно в хорошем качестве Описание: Молодые музыканты бросают колледж и отправляются в Голливуд, на встречу мечте. Как бы они ни были талантливы, но средств на жизнь ... 10 10 5
Торрент: Зарегистрирован [2018-01-17 18:42] · скачан: 66 раз
Статус: T временная
Размер: 3.76 GB
Как cкачать? Как скачать Американский дьявол через торрент | qTorrent

% Раздел Тема Автор DL S | L
T Фильмы (мультфильмы) cо спонсором показа (Новинки AVI/MKV) [ 1.46 GB ] Американский дьявол / American Satan [2017 музыка WEB-DLRip] MVO ["Синема УС"] bober100 Скачать
1 | 0

28-11-2019 20:33  

Отключить всю рекламу на сайте

18-01-2018 05:18 Американский дьявол Скачать торрент  

я уже подумал про лысого)) ( по названию)pb.wtf



    Дорогой пользователь! Огромная просьба, поблагодарите релизера, оцените раздачу и оставьте свои комментарий, если Вы скачали Американский дьявол через торрент бесплатно! Внесите свою лепту в развитие PiratBit!
    Комментировать посты могут только пользователи прошедшие не сложную регистрацию
    Показать сообщения:    

    Американский дьявол через торрент
    Скачать бесплатно Американский дьявол
    Американский дьявол скачать торрент
    Американский дьявол смотреть онлайн
    Cкачать фильм Американский дьявол бесплатно
    Американский дьявол скачать торрент в хорошем качестве
    Американский дьявол смотреть онлайн бесплатно в хорошем качестве


    Вы не можете начинать темы
    Вы не можете отвечать на сообщения
    Вы не можете редактировать свои сообщения
    Вы не можете удалять свои сообщения
    Вы не можете голосовать в опросах
    Вы не можете прикреплять файлы к сообщениям
    Вы можете скачивать файлы