Ссылка на приватное зеркало нашего сайта всего за 1$. Внимание количество ограничено!!!

2 сезон

iTunes

1 сезон

1

iTunes

iTunes

iTunes

1 сезон

RePack

30

ИГРА 18+

pack

ВАЖНО

!!Акция!!

Alien_RageХит недели

RePack

MK11
pack

Забери бонус

RePack

jed

!!Акция!!

Alien_Rage

RePack

fifa19

RePack

Assassins Creed: Odyssey

RePack

NEED FOR SPEED™ PAYBACK

4 сезон

9 сезон

Бесстыжие 9 сезон

Все сериалы

все сериалы на PB.wtf

RePack

FAR CRY 5
  

Разрисованная вуаль / The Painted Veil (Джон Керран) [2006, драма, мелодрама, BDRip 1080p by msltel] DUB, DVO, AVO pb.wtf

Разрисованная вуаль через торрент pb.wtf

Размер: 15.22 GB | Добавлен: 2 года 9 мес. назад | Торрент скачан:51 раз
Скачать  

18-01-2018 06:49 Разрисованная вуаль Скачать торрент  

Название: Разрисованная вуаль
Оригинальное название: The Painted Veil
Год выпуска: 2006
Страна: Китай, США, Канада
Жанр: драма, мелодрама
Продолжительность: 02:04:57
Перевод: дублированный, профессиональный двухголосый, авторский

Режиссер: Джон Керран
В ролях: Наоми Уоттс, Эдвард Нортон, Лив Шрайбер, Тоби Джонс, Дайана Ригг, Энтони Вонг Чау-Санг, Гесан Мейдуо, Чен Шихан, Катрин Эн, Ли Бинь, Бин Ву, Алан Дэвид, Салли Хокинс, Джульетт Хоуланд, Лоррэйн Лоуренс, Мэгги Стид, Зои Телфорд, Хелен Кардона

О фильме: 20-е годы XX века. Очаровательная Китти, дама из высшего общества, выходит замуж за молодого врача Уолтера. Когда молодожёны уезжают в Шанхай, Китти изменяет мужу, но Уолтер раскрывает её тайну. В гневе он решает отправиться в глухую китайскую деревушку, где свирепствует эпидемия холеры, и забирает неверную супругу с собой. Путешествие по экзотическим краям, странные нравы чужого, враждебного мира и постоянный риск наполняют жизнь супругов остротой и новым смыслом. Китти начинает видеть Уолтера в ином свете и влюбляется в него… Фильм снят по мотивам романа У. С. Моэма «Узорный покров» (The Painted Veil, 1925).



Качество: BDRip 1080p
Формат: MKV
Видео: MPEG-4 AVC, 12.5 Мбит/с, 1920х794, 23.976 кадр/с
Аудио 1: русский, AC3, 448 kbps, 6 ch [дублированный]
Аудио 2: русский, DTS, 1509 kbps, 6 ch [профессиональный двухголосый, Пётр Гланц и Инна Королёва]
Аудио 3: русский, DTS, 1509 kbps, 6 ch [авторский, Юрий Немахов]
Аудио 4: английский, DTS, 1509 kbps, 6 ch, 48 kHz [оригинал]
Субтитры 1: русские
Субтитры 2: английские
Неименованные главы/чаптеры.
Общее
Уникальный идентификатор : 174419268894629365460216382825440379235 (0x8337EDE5923EC3C794DA54FF7CAE8163)
Полное имя : D:\Video\Разрисованная вуаль.2006.BDRip.1080p by msltel.mkv
Формат : Matroska
Версия формата : Version 4 / Version 2
Размер файла : 15,2 Гбайт
Продолжительность : 2 ч. 4 м.
Общий поток : 17,4 Мбит/сек
Название фильма : Rip by msltel
Дата кодирования : UTC 2018-01-17 15:30:52
Программа кодирования : mkvmerge v8.2.0 ('World of Adventure') 64bit
Библиотека кодирования : libebml v1.3.1 + libmatroska v1.4.2

Видео
Идентификатор : 1
Формат : AVC
Формат/Информация : Advanced Video Codec
Профиль формата : High@L4.1
Настройки формата : CABAC / 4 Ref Frames
Параметр CABAC формата : Да
Параметр RefFrames формата : 4 кадра
Идентификатор кодека : V_MPEG4/ISO/AVC
Продолжительность : 2 ч. 4 м.
Битрейт : 12,5 Мбит/сек
Ширина : 1920 пикселей
Высота : 794 пикселя
Соотношение сторон : 2,40:1
Режим частоты кадров : Постоянный
Частота кадров : 23,976 (24000/1001) кадра/сек
Цветовое пространство : YUV
Субдискретизация насыщенности : 4:2:0
Битовая глубина : 8 бит
Тип развёртки : Прогрессивная
Бит/(Пиксели*Кадры) : 0.341
Размер потока : 10,9 Гбайт (71%)
Библиотека кодирования : x264 core 146 r2538 121396c
Настройки программы : cabac=1 / ref=4 / deblock=1:-3:-2 / analyse=0x3:0x113 / me=umh / subme=11 / psy=1 / psy_rd=1.00:0.15 / mixed_ref=1 / me_range=32 / chroma_me=1 / trellis=2 / 8x8dct=1 / cqm=0 / deadzone=21,11 / fast_pskip=0 / chroma_qp_offset=-3 / threads=6 / lookahead_threads=1 / sliced_threads=0 / nr=0 / decimate=1 / interlaced=0 / bluray_compat=0 / constrained_intra=0 / bframes=10 / b_pyramid=2 / b_adapt=2 / b_bias=0 / direct=1 / weightb=1 / open_gop=0 / weightp=2 / keyint=230 / keyint_min=23 / scenecut=40 / intra_refresh=0 / rc_lookahead=40 / rc=crf / mbtree=0 / crf=17.5 / qcomp=0.60 / qpmin=0 / qpmax=69 / qpstep=4 / vbv_maxrate=62500 / vbv_bufsize=78125 / crf_max=0.0 / nal_hrd=none / filler=0 / ip_ratio=1.40 / pb_ratio=1.30 / aq=1:1.00
Язык : English
Default : Да
Forced : Нет

Аудио #1
Идентификатор : 2
Формат : AC-3
Формат/Информация : Audio Coding 3
Идентификатор кодека : A_AC3
Продолжительность : 2 ч. 4 м.
Вид битрейта : Постоянный
Битрейт : 448 Кбит/сек
Каналы : 6 каналов
Расположение каналов : Front: L C R, Side: L R, LFE
Частота : 48,0 КГц
Частота кадров : 31,250 кадров/сек (1536 SPF)
Битовая глубина : 16 бит
Метод сжатия : С потерями
Размер потока : 400 Мбайт (3%)
Заголовок : DUB
Язык : Russian
ServiceKind/String : Complete Main
Default : Да
Forced : Нет

Аудио #2
Идентификатор : 3
Формат : DTS
Формат/Информация : Digital Theater Systems
Идентификатор кодека : A_DTS
Продолжительность : 2 ч. 4 м.
Вид битрейта : Постоянный
Битрейт : 1509 Кбит/сек
Каналы : 6 каналов
Расположение каналов : Front: L C R, Side: L R, LFE
Частота : 48,0 КГц
Частота кадров : 93,750 кадра/сек (512 SPF)
Битовая глубина : 16 бит
Метод сжатия : С потерями
Размер потока : 1,32 Гбайт (9%)
Заголовок : Пётр Гланц и Инна Королёва
Язык : Russian
Default : Нет
Forced : Нет

Аудио #3
Идентификатор : 4
Формат : DTS
Формат/Информация : Digital Theater Systems
Идентификатор кодека : A_DTS
Продолжительность : 2 ч. 4 м.
Вид битрейта : Постоянный
Битрейт : 1509 Кбит/сек
Каналы : 6 каналов
Расположение каналов : Front: L C R, Side: L R, LFE
Частота : 48,0 КГц
Частота кадров : 93,750 кадра/сек (512 SPF)
Битовая глубина : 16 бит
Метод сжатия : С потерями
Размер потока : 1,32 Гбайт (9%)
Заголовок : Юрий Немахов
Язык : Russian
Default : Нет
Forced : Нет

Аудио #4
Идентификатор : 5
Формат : DTS
Формат/Информация : Digital Theater Systems
Идентификатор кодека : A_DTS
Продолжительность : 2 ч. 4 м.
Вид битрейта : Постоянный
Битрейт : 1509 Кбит/сек
Каналы : 6 каналов
Расположение каналов : Front: L C R, Side: L R, LFE
Частота : 48,0 КГц
Частота кадров : 93,750 кадра/сек (512 SPF)
Битовая глубина : 16 бит
Метод сжатия : С потерями
Размер потока : 1,32 Гбайт (9%)
Заголовок : original
Язык : English
Default : Нет
Forced : Нет

Текст #1
Идентификатор : 6
Формат : UTF-8
Идентификатор кодека : S_TEXT/UTF8
Идентификатор кодека/Информация : UTF-8 Plain Text
Продолжительность : 1 ч. 59 м.
Битрейт : 55 бит/сек
ElementCount : 1037
Размер потока : 49,0 Кбайт (0%)
Заголовок : русские
Язык : Russian
Default : Нет
Forced : Нет

Текст #2
Идентификатор : 7
Формат : UTF-8
Идентификатор кодека : S_TEXT/UTF8
Идентификатор кодека/Информация : UTF-8 Plain Text
Продолжительность : 2 ч. 2 м.
Битрейт : 51 бит/сек
ElementCount : 1209
Размер потока : 46,1 Кбайт (0%)
Заголовок : английские
Язык : English
Default : Нет
Forced : Нет

Меню
00:00:00.000 : :Chapter 01
00:10:41.682 : :Chapter 02
00:22:23.383 : :Chapter 03
00:31:34.851 : :Chapter 04
00:40:41.021 : :Chapter 05
00:50:23.893 : :Chapter 06
01:01:50.831 : :Chapter 07
01:13:21.188 : :Chapter 08
01:24:20.095 : :Chapter 09
01:33:36.609 : :Chapter 10
01:43:15.189 : :Chapter 11
01:58:08.247 : :Chapter 12
02:04:57.198 : :Chapter 13
pb.wtf



Скачать Разрисованная вуаль через торрент https://c.radikal.ru/c10/1801/06/31a070247abd.jpg Скачать фильм Разрисованная вуаль через торрент бесплантно в хорошем качестве О фильме: 20-е годы XX века. Очаровательная Китти, дама из высшего общества, выходит замуж за молодого врача Уолтера. Когда молодожёны ... 10 10 1
Info! Золотая раздача, скачанное не засчитывается.
Торрент: Зарегистрирован [2018-01-18 06:49] · скачан: 51 раз
Статус: √ проверено
Размер: 15.22 GB
Как cкачать? Как скачать Разрисованная вуаль через торрент | qTorrent

% Раздел Тема Автор DL S | L
Фильмы [HD 720p, 1080p] (Хороший звук DUB, MVO) [ 5.36 GB ] Разрисованная вуаль / The Painted Veil [2006 BDRip 720p by msltel] DUB DVO AVO msltel Скачать
1 | 0

28-11-2019 20:33  

Отключить всю рекламу на сайте

    Дорогой пользователь! Огромная просьба, поблагодарите релизера, оцените раздачу и оставьте свои комментарий, если Вы скачали Разрисованная вуаль через торрент бесплатно! Внесите свою лепту в развитие PiratBit!
    Комментировать посты могут только пользователи прошедшие не сложную регистрацию
    Показать сообщения:    

    Разрисованная вуаль через торрент
    Скачать бесплатно Разрисованная вуаль
    Разрисованная вуаль скачать торрент
    Разрисованная вуаль смотреть онлайн
    Cкачать фильм Разрисованная вуаль бесплатно
    Разрисованная вуаль скачать торрент в хорошем качестве
    Разрисованная вуаль смотреть онлайн бесплатно в хорошем качестве


    Вы не можете начинать темы
    Вы не можете отвечать на сообщения
    Вы не можете редактировать свои сообщения
    Вы не можете удалять свои сообщения
    Вы не можете голосовать в опросах
    Вы не можете прикреплять файлы к сообщениям
    Вы можете скачивать файлы