Ссылка на приватное зеркало нашего сайта всего за 1$. Внимание количество ограничено!!!

2 сезон

iTunes

1 сезон

1

2 сезон

2 сезон

iTunes

1 сезон

RePack

30

Ultimate

ВАЖНО

ИГРА 18+

pack

RePack

MK11
pack

Забери бонус

RePack

jed

!!Акция!!

Alien_Rage

RePack

fifa19

RePack

Assassins Creed: Odyssey

RePack

NEED FOR SPEED™ PAYBACK

4 сезон

9 сезон

Бесстыжие 9 сезон

Все сериалы

все сериалы на PB.wtf

RePack

FAR CRY 5
  

Ординатор / The Resident / Сезон: 1 / Серия: 1-3 из 11 (Роб Корн, Билл Д’Элиа, Филлип Нойс) [2018, Драма, WEBRip] [MVO] (Hamsterstudio) pb.wtf

Ординатор через торрент pb.wtf

Размер: 1.14 GB | Добавлен: 2 года 10 мес. назад | Торрент скачан:7 раз
Скачать  

18-01-2018 08:08 Ординатор Скачать торрент  


Ординатор / The Resident


• Год выпуска: 2018
• Страна: США, 20th Century Fox Television, 3 Arts Entertainment, Fuqua Films
• Жанр: драма
• Продолжительность: ~ 00:45:00
• Перевод: Любительский (многоголосый закадровый) | Hamsterstudio

• Режиссёр: Роб Корн, Билл Д’Элиа, Филлип Нойс

• В ролях: Мэтт Зукри, Эмили ВанКэмп, Мелина Канакаридис, Ван Мартен, Маниш Дайал, Тассо Фельдман, Джессика Мизел, Винс Фостер, Элизабет Лудлоу, Кэролайн Фридлюнд

• Описание: Сериал рассказывает о молодом враче с идеалистическими взглядами на жизнь, который начинает работать под началом блестящего и более опытного врача. Со временем главный герой понимает, что не всё так просто, и в его работе есть сотня нюансов, на которые невозможно закрыть глаза.

rating

• Качество: WEBRip
• Формат: AVI
• Видео: XviD, ~ 1100 Кбит/с, 720x400, 23,976 fps
• Аудио: MP3, 48 kHz, 2 ch, 128 kbps
• Субтитры: отсутствуют
General
Complete name : E:\The.Resident.S01E01.WEBRip.HamsterStudio.Org.avi
Format : AVI
Format/Info : Audio Video Interleave
File size : 391 MiB
Duration : 44 min 32 s
Overall bit rate : 1 226 kb/s
Writing application : VirtualDubMod 1.5.10.2 (build 2540/release)
Writing library : VirtualDubMod build 2540/release

Video
ID : 0
Format : MPEG-4 Visual
Format profile : Advanced Simple@L5
Format settings : BVOP1
Format settings, BVOP : 1
Format settings, QPel : No
Format settings, GMC : No warppoints
Format settings, Matrix : Default (H.263)
Muxing mode : Packed bitstream
Codec ID : XVID
Codec ID/Hint : XviD
Duration : 44 min 32 s
Bit rate : 1 040 kb/s
Width : 720 pixels
Height : 400 pixels
Display aspect ratio : 16:9
Frame rate : 23.976 (24000/1001) FPS
Color space : YUV
Chroma subsampling : 4:2:0
Bit depth : 8 bits
Scan type : Progressive
Compression mode : Lossy
Bits/(Pixel*Frame) : 0.151
Stream size : 331 MiB (85%)
Writing library : XviD 66

Audio
ID : 1
Format : MPEG Audio
Format version : Version 1
Format profile : Layer 3
Format settings : Joint stereo / MS Stereo
Mode : Joint stereo
Mode extension : MS Stereo
Codec ID : 55
Codec ID/Hint : MP3
Duration : 44 min 32 s
Bit rate mode : Constant
Bit rate : 128 kb/s
Channel(s) : 2 channels
Sampling rate : 48.0 kHz
Compression mode : Lossy
Stream size : 40.8 MiB (10%)
Alignment : Aligned on interleaves
скриншот  скриншот  скриншот  
Внимание! Раздача ведётся путём добавления новых серий; при каждом добавлении создаётся новый торрент. Чтобы начать докачку новой серии, пользователям необходимо сделать следующее:
(1) остановить скачивание,
(2) удалить старый торрент у себя из клиента (старые серии удалять не надо),
(3) скачать новый торрент и запустить его у себя в клиенте вместо старого, при этом указать клиенту путь в старую папку куда и должно происходить скачивание новых серий.

Ваш клиент при этом должен произвести хеширование (проверку) старой папки (если не производит сам - помогите ему сделать это), и будет докачивать только те серии которых у вас ещё нет. Старые серии при этом не удаляются, а продолжают раздаваться!

Eсли вы уже удалили старые серии, то предотвратить повторную закачку старых серий можно, отжав галочку в соответствующих местах при запуске нового торрента. По возможности, желательно не удалять старые серии как можно дольше чтобы релизёр не столько продолжал раздавать старые серии, а смог сконцентрироваться на новых.
pb.wtf



Скачать Ординатор через торрент http://i100.fastpic.ru/big/2018/0118/7e/05a3ed364a506ee13f33d5409dee337e.jpg Скачать фильм Ординатор через торрент бесплантно в хорошем качестве Описание: Сериал рассказывает о молодом враче с идеалистическими взглядами на жизнь, который начинает работать под началом блестящего и ... 5 10 1
Торрент: Зарегистрирован [2018-02-01 17:42] · скачан: 7 раз
Статус: √ проверено
Размер: 1.14 GB
Как cкачать? Как скачать Ординатор через торрент | qTorrent



Последний раз редактировалось: killermax2013 (2018-02-01 17:42), всего редактировалось 1 раз

28-11-2019 20:33  

Отключить всю рекламу на сайте

30-01-2018 12:35 Ординатор Скачать торрент  

+2 pb.wtf



01-02-2018 17:43 Ординатор Скачать торрент  

+3 pb.wtf



    Дорогой пользователь! Огромная просьба, поблагодарите релизера, оцените раздачу и оставьте свои комментарий, если Вы скачали Ординатор через торрент бесплатно! Внесите свою лепту в развитие PiratBit!
    Комментировать посты могут только пользователи прошедшие не сложную регистрацию
    Показать сообщения:    

    Ординатор через торрент
    Скачать бесплатно Ординатор
    Ординатор скачать торрент
    Ординатор смотреть онлайн
    Cкачать фильм Ординатор бесплатно
    Ординатор скачать торрент в хорошем качестве
    Ординатор смотреть онлайн бесплатно в хорошем качестве


    Вы не можете начинать темы
    Вы не можете отвечать на сообщения
    Вы не можете редактировать свои сообщения
    Вы не можете удалять свои сообщения
    Вы не можете голосовать в опросах
    Вы не можете прикреплять файлы к сообщениям
    Вы можете скачивать файлы