Ссылка на приватное зеркало нашего сайта всего за 1$. Внимание количество ограничено!!!

2 сезон

iTunes

1 сезон

1

2 сезон

2 сезон

iTunes

1 сезон

RePack

30

Ultimate

ВАЖНО

ИГРА 18+

pack

RePack

MK11
pack

Забери бонус

RePack

jed

!!Акция!!

Alien_Rage

RePack

fifa19

RePack

Assassins Creed: Odyssey

RePack

NEED FOR SPEED™ PAYBACK

4 сезон

9 сезон

Бесстыжие 9 сезон

Все сериалы

все сериалы на PB.wtf

RePack

FAR CRY 5
  

Американская история преступлений / American Crime Story / Сезон: 2 / Серии 1-5 из 10 (Райан Мерфи / Ryan Murphy, Энтони Хемингуэй / Anthony Hemingway) [2018, США, драма, криминал, биография, HDTVRip] MVO [Amedia] pb.wtf

Американская история преступлений через торрент pb.wtf

Размер: 3.42 GB | Добавлен: 2 года 9 мес. назад | Торрент скачан:13 раз
Скачать  

18-01-2018 09:32 Американская история преступлений Скачать торрент  

Американская история преступлений / American Crime Story
«Судебный процесс это еще не вся история. Это.....»


  • Год выпуска: 2018
  • Страна: США
  • Жанр: драма, криминал, биография
  • Продолжительность: ~ 01:00:00 (Серия)
  • Перевод: Профессиональный многоголосый закадровый Amedia
  • Режиссер: Райан Мерфи / Ryan Murphy, Энтони Хемингуэй / Anthony Hemingway
  • В ролях:
    Кьюба Гудинг мл., Джон Траволта, Сара Полсон, Дэвид Швиммер, Брюс Гринвуд, Натан Лэйн, Билли Магнуссен, Сэлма Блэр, Конни Бриттон, Стерлинг К. Браун, Кеннет Чои



  • Утром 15 июля 1997 года Джанни Версаче был убит на пороге собственного дома. Он вышел за газетой, а когда возвращался, был застрелен серийным убийцей Эндрю Кьюнененом, незадолго до этого объявленным в федеральный розыск. Это убийство стало для Кьюненена пятым и последним — спустя неделю тот застрелился и сам. Почему дизайнер стал его жертвой — до сих пор непонятно. Известно лишь, что они пересекались однажды в Сан-Франциско, куда Версаче ездил для пошива костюмов для местной оперной постановки.
  • Рейтинг:

    rating
  • Качество: HDTVRip
  • Формат: :AVI
  • Видео кодек: XviD
  • Аудио кодек: AC3
  • Видео: 1660 Кбит/сек, 720*400 (16:9), в 23,976 (24000/1001) кадра/сек, MPEG-4 Visual (XviD)
  • Аудио №1: русский 192 Кбит/сек, 48,0 КГц, 16 бит, 2 канала, AC-3 |Amedia|

    Внимание! Раздача ведётся путём добавления новых серий; при каждом добавлении создаётся новый торрент. Чтобы начать докачку новой серии, пользователям необходимо сделать следующее:
    (1) остановить скачивание,
    (2) удалить старый торрент у себя из клиента (старые серии удалять не надо),
    (3) скачать новый торрент и запустить его у себя в клиенте вместо старого, при этом указать клиенту путь в старую папку куда и должно происходить скачивание новых серий.
    Ваш клиент при этом должен произвести хеширование (проверку) старой папки (если не производит сам - помогите ему сделать это), и будет докачивать только те серии которых у вас ещё нет. Старые серии при этом не удаляются, а продолжают раздаваться!
    Eсли вы уже удалили старые серии, то предотвратить повторную закачку старых серий можно, отжав галочку в соответствующих местах при запуске нового торрента. По возможности, желательно не удалять старые серии как можно дольше чтобы релизёр не столько продолжал раздавать старые серии, а смог сконцентрироваться на новых.
    Общее
    Полное имя : F:\Загрузки\American Crime Story.S02.E01. Amedia.avi
    Формат : AVI
    Формат/Информация : Audio Video Interleave
    Размер файла : 700 Мбайт
    Продолжительность : 52 м. 34 с.
    Общий поток : 1861 Кбит/сек
    Программа кодирования : VirtualDubMod 1.5.10.2 (build 2540/release)
    Библиотека кодирования : VirtualDubMod build 2540/release

    Видео
    Идентификатор : 0
    Формат : MPEG-4 Visual
    Профиль формата : Advanced Simple@L5
    Настройки формата : BVOP2
    Параметр BVOP формата : 2
    Параметр QPel формата : Нет
    Параметр GMC формата : Без точки перехода
    Параметр матрицы формата : Default (MPEG)
    Идентификатор кодека : XVID
    Идентификатор кодека/Подсказка : XviD
    Продолжительность : 52 м. 34 с.
    Битрейт : 1660 Кбит/сек
    Ширина : 720 пикселей
    Высота : 400 пикселей
    Соотношение сторон : 16:9
    Частота кадров : 23,976 (24000/1001) кадра/сек
    Цветовое пространство : YUV
    Субдискретизация насыщенности : 4:2:0
    Битовая глубина : 8 бит
    Тип развёртки : Прогрессивная
    Метод сжатия : С потерями
    Бит/(Пиксели*Кадры) : 0.240
    Размер потока : 624 Мбайт (89%)
    Библиотека кодирования : XviD 1.2.1 (UTC 2008-12-04)

    Аудио
    Идентификатор : 1
    Формат : AC-3
    Формат/Информация : Audio Coding 3
    Идентификатор кодека : 2000
    Продолжительность : 52 м. 34 с.
    Вид битрейта : Постоянный
    Битрейт : 192 Кбит/сек
    Каналы : 2 канала
    Расположение каналов : Front: L R
    Частота : 48,0 КГц
    Частота кадров : 31,250 кадров/сек (1536 SPF)
    Битовая глубина : 16 бит
    Метод сжатия : С потерями
    Размер потока : 72,2 Мбайт (10%)
    Выравнивание : Разделение по промежуткам
    Продолжительность промежутка : 42 мс. (1,00 видеокадр)
    Время предзагрузки промежутка : 500 мс.
    ServiceKind/String : Complete Main



    Скриншоты:
    скриншот   скриншот   скриншот   скриншот   скриншот   скриншот   скриншот  
    скриншот  

    Раздача ведётся путём добавления новых серий. Добавлена 5 серия (19.02.2018).Просьба перекачать торрент файл.

    pb.wtf



  • Скачать Американская история преступлений через торрент http://pic1.kartinco.top/images/11/gckn3.jpg Скачать фильм Американская история преступлений через торрент бесплантно в хорошем качестве qw.png Утром 15 июля 1997 года Джанни Версаче был убит на пороге собственного дома. Он вышел за газетой, а когда возвращался, был ... 10 10 1
    Info! Серебряная раздача, засчитывается только 50% скачанного.
    Торрент: Зарегистрирован [2018-02-18 23:50] · скачан: 13 раз
    Статус: √ проверено
    Размер: 3.42 GB
    Как cкачать? Как скачать Американская история преступлений через торрент | qTorrent

    28-11-2019 20:33  

    Отключить всю рекламу на сайте

      Дорогой пользователь! Огромная просьба, поблагодарите релизера, оцените раздачу и оставьте свои комментарий, если Вы скачали Американская история преступлений через торрент бесплатно! Внесите свою лепту в развитие PiratBit!
      Комментировать посты могут только пользователи прошедшие не сложную регистрацию
      Показать сообщения:    

      Американская история преступлений через торрент
      Скачать бесплатно Американская история преступлений
      Американская история преступлений скачать торрент
      Американская история преступлений смотреть онлайн
      Cкачать фильм Американская история преступлений бесплатно
      Американская история преступлений скачать торрент в хорошем качестве
      Американская история преступлений смотреть онлайн бесплатно в хорошем качестве


      Вы не можете начинать темы
      Вы не можете отвечать на сообщения
      Вы не можете редактировать свои сообщения
      Вы не можете удалять свои сообщения
      Вы не можете голосовать в опросах
      Вы не можете прикреплять файлы к сообщениям
      Вы можете скачивать файлы