Всегда рабочее зеркало без VPN и Proxy просто перед .vidak.icu напиши любое слово или цифру, Пример http://xo23.vidak.icu

Лицензия

MVO

1 сезон

1

1 сезон

iTunes

1 сезон

13

1 сезон

Deluxe

pack

Рекомендуем

Repack

30

ВАЖНО

RePack

MK11

RePack

jed

RePack

fifa19

RePack

RDR2

RePack

NEED FOR SPEED™ PAYBACK

Кинопоиск HD

6 сезон

 Острые козырьки 6 сезон

Все сериалы

все сериалы на PB.wtf

RePack

FAR CRY 5
  
Magnet ссылка

Из машины / Ex Machina (Алекс Гарленд) [2014, фантастика, триллер, драма, UHD BDRemux 2160p] DUB + 2xAVO pb.wtf

Из машины через торрент pb.wtf

Размер: 60.22 GB | Добавлен: 4 года 7 мес. назад | Торрент скачан:53 раза
Смотреть онлайн Из машины | Скачать    Ребята, помогите собрать деньги на оплату серверов!!!

18-01-2018 14:06 Из машины Скачать торрент  

Из машины / Ex Machina

Год выпуска: 2014
Страна: Великобритания
Жанр: фантастика, триллер, драма
Продолжительность: 01:48:15
Перевод: Дублированный, Одноголосый закадровый (Авторский)
Субтитры: Русские (forced, full), английские
Режиссер: Алекс Гарленд
В ролях:

Донал Глисон (Caleb), Алисия Викандер (Ava), Оскар Айзек (Nathan), Соноя Мидзуно (Kyoko), Кори Джонсон (Jay), Клэр Селби (Lily), Симара А. Темплмен (Jasmine), Гана Баярсайкан (Jade), Тиффани Писани (Katya), Элина Алминас (Amber), Челси Ли (Office Girl, в титрах не указана), Кэйтлин Мортон (Office Worker, в титрах не указана)
Описание:
В центре сюжета - молодой человек, которого нанимает миллиардер, сделавший состояние на высокотехнологичных разработках. Задача работника - провести неделю в удаленном местечке, тестируя женщину-робота с искусственным интеллектом.
Рейтинг:

MPAA: R - Лицам до 17 лет обязательно присутствие взрослого
Качество: UHD BDRemux 2160p
Формат: MKV
Видео: MPEG-H HEVC HDR Video, 3840x2160, 66.9 Mbit/s, 23.976 fps
Аудио #01: 48 kHz, AC3, 5.1, 448 Kbps | Дублированный | RUS |
Аудио #02: 48 kHz, DTS-HD MA, 5.1, 3352 Kbps | Авторский (Матвеев) | RUS |
Аудио #03: 48 kHz, DTS-HD MA, 5.1, 3408 Kbps | Авторский (Визгунов) | RUS |
Аудио #04: 48 kHz, DTS-HD MA, 7.1, 5522 Kbps | Оригинал | ENG |
Навигация по главам: есть
General
Unique ID : 33545564233603389928598202445942085363 (0x193CA402ADF4FD0A31387B76FCC5D6F3)
Complete name : G:VideoSSDEx.Machina.2015.BDREMUX.2160p.4K.UltraHD.HEVC.HDR.ExKinoRay.mkv
Format : Matroska
Format version : Version 4 / Version 2
File size : 60.2 GiB
Duration : 1 h 48 min
Overall bit rate : 79.6 Mb/s
Movie name : Ex Machina 2015 from ExKinoRay
Encoded date : UTC 2018-01-18 11:40:35
Writing application : mkvmerge v20.0.0 ('I Am The Sun') 64-bit
Writing library : libebml v1.3.5 + libmatroska v1.4.8

Video
ID : 1
Format : HEVC
Format/Info : High Efficiency Video Coding
Format profile : Main [email protected]@High
Codec ID : V_MPEGH/ISO/HEVC
Duration : 1 h 48 min
Bit rate : 66.9 Mb/s
Width : 3 840 pixels
Height : 2 160 pixels
Display aspect ratio : 16:9
Frame rate mode : Constant
Frame rate : 23.976 (24000/1001) FPS
Color space : YUV
Chroma subsampling : 4:2:0 (Type 2)
Bit depth : 10 bits
Bits/(Pixel*Frame) : 0.336
Stream size : 50.6 GiB (84%)
Writing library : ATEME Titan File 3.7.9 (4.7.9.0)
Language : English
Default : Yes
Forced : No
Color range : Limited
Color primaries : BT.2020
Transfer characteristics : PQ
Matrix coefficients : BT.2020 non-constant
Mastering display color pri : R: x=0.680000 y=0.320000, G: x=0.265000 y=0.690000, B: x=0.150000 y=0.060000, White point: x=0.312700 y=0.329000
Mastering display luminance : min: 0.0000 cd/m2, max: 1000.0000 cd/m2
Maximum Content Light Level : 1347 cd/m2
Maximum Frame-Average Light : 546 cd/m2

Audio #1
ID : 2
Format : AC-3
Format/Info : Audio Coding 3
Codec ID : A_AC3
Duration : 1 h 48 min
Bit rate mode : Constant
Bit rate : 448 kb/s
Channel(s) : 6 channels
Channel positions : Front: L C R, Side: L R, LFE
Sampling rate : 48.0 kHz
Frame rate : 31.250 FPS (1536 SPF)
Bit depth : 16 bits
Compression mode : Lossy
Stream size : 347 MiB (1%)
Title : Dub [License]
Language : Russian
Service kind : Complete Main
Default : Yes
Forced : No

Audio #2
ID : 3
Format : DTS
Format/Info : Digital Theater Systems
Format profile : MA / Core
Codec ID : A_DTS
Duration : 1 h 48 min
Bit rate mode : Variable / Constant
Bit rate : 3 352 kb/s / 1 509 kb/s
Channel(s) : 6 channels
Channel positions : Front: L C R, Side: L R, LFE
Sampling rate : 48.0 kHz
Frame rate : 93.750 FPS (512 SPF)
Bit depth : 24 bits
Compression mode : Lossless / Lossy
Stream size : 2.53 GiB (4%)
Title : AVO [Matveev]
Language : Russian
Default : No
Forced : No

Audio #3
ID : 4
Format : DTS
Format/Info : Digital Theater Systems
Format profile : MA / Core
Codec ID : A_DTS
Duration : 1 h 48 min
Bit rate mode : Variable / Constant
Bit rate : 3 408 kb/s / 1 509 kb/s
Channel(s) : 6 channels
Channel positions : Front: L C R, Side: L R, LFE
Sampling rate : 48.0 kHz
Frame rate : 93.750 FPS (512 SPF)
Bit depth : 24 bits
Compression mode : Lossless / Lossy
Stream size : 2.58 GiB (4%)
Title : AVO [Vizgunov]
Language : Russian
Default : No
Forced : No

Audio #4
ID : 5
Format : DTS
Format/Info : Digital Theater Systems
Format profile : X / MA / Core
Codec ID : A_DTS
Duration : 1 h 48 min
Bit rate mode : Variable / Variable / Constant
Bit rate : 5 522 kb/s / 5 522 kb/s / 1 509 kb/s
Channel(s) : Object Based / 8 channels / 6 channels
Channel positions : Object Based / Front: L C R, Side: L R, Back: L R, LFE / Front: L C R, Side: L R, LFE
Sampling rate : / 48.0 kHz / 48.0 kHz
Frame rate : 93.750 FPS (512 SPF)
Bit depth : / 24 bits / 24 bits
Compression mode : / Lossless / Lossy
Stream size : 4.18 GiB (7%)
Title : Original
Language : English
Default : No
Forced : No

Text #1
ID : 6
Format : UTF-8
Codec ID : S_TEXT/UTF8
Codec ID/Info : UTF-8 Plain Text
Duration : 1 h 31 min
Bit rate : 0 b/s
Count of elements : 9
Stream size : 233 Bytes (0%)
Title : Forced
Language : Russian
Default : Yes
Forced : No

Text #2
ID : 7
Format : UTF-8
Codec ID : S_TEXT/UTF8
Codec ID/Info : UTF-8 Plain Text
Duration : 1 h 46 min
Bit rate : 72 b/s
Count of elements : 1070
Stream size : 57.1 KiB (0%)
Title : Full
Language : Russian
Default : No
Forced : No

Text #3
ID : 8
Format : UTF-8
Codec ID : S_TEXT/UTF8
Codec ID/Info : UTF-8 Plain Text
Duration : 1 h 38 min
Bit rate : 47 b/s
Count of elements : 1248
Stream size : 34.4 KiB (0%)
Title : Full
Language : English
Default : No
Forced : No

Menu
00:00:00.000 : en:Chapter 1
00:07:24.402 : en:Chapter 2
00:11:33.401 : en:Chapter 3
00:18:11.465 : en:Chapter 4
00:23:55.017 : en:Chapter 5
00:32:07.008 : en:Chapter 6
00:35:42.974 : en:Chapter 7
00:46:05.388 : en:Chapter 8
00:53:38.006 : en:Chapter 9
01:00:35.090 : en:Chapter 10
01:09:14.108 : en:Chapter 11
01:13:30.948 : en:Chapter 12
01:21:45.526 : en:Chapter 13
01:29:20.355 : en:Chapter 14
01:36:16.354 : en:Chapter 15
01:42:00.072 : en:Chapter 16
pb.wtf



Скачать Из машины через торрент http://i99.fastpic.ru/big/2018/0118/5d/df0b74293697c886cb49488932201f5d.jpg Скачать, смотреть онлайн Из машины бесплантно в хорошем качестве Описание: В центре сюжета - молодой человек, которого нанимает миллиардер, сделавший состояние на высокотехнологичных разработках. Задача ... 10 10 3
Торрент: Зарегистрирован [2018-01-18 14:06] · скачан: 53 раз
Статус: √ проверено
Размер: 60.22 GB
Как cкачать? Как скачать Из машины через торрент | UTorrent

28-11-2019 20:33  

Отключить вcю реклaмy на сайте

    Дорогой пользователь! Огромная просьба, поблагодарите релизера, оцените раздачу и оставьте свои комментарий, если Вы скачали Из машины через торрент бесплатно!
    Комментировать посты могут только пользователи прошедшие не сложную регистрацию
    Показать сообщения:    

    Из машины через торрент
    Скачать бесплатно Из машины
    Из машины скачать торрент
    Из машины смотреть онлайн
    Cкачать фильм Из машины бесплатно
    Из машины скачать торрент в хорошем качестве
    Из машины смотреть онлайн бесплатно в хорошем качестве


    Вы не можете начинать темы
    Вы не можете отвечать на сообщения
    Вы не можете редактировать свои сообщения
    Вы не можете удалять свои сообщения
    Вы не можете голосовать в опросах
    Вы не можете прикреплять файлы к сообщениям
    Вы можете скачивать файлы