Ссылка на приватное зеркало нашего сайта всего за 1$. Внимание количество ограничено!!!

2 сезон

iTunes

1 сезон

1

2 сезон

2 сезон

iTunes

1 сезон

RePack

30

Ultimate

ВАЖНО

ИГРА 18+

pack

RePack

MK11
pack

Забери бонус

RePack

jed

!!Акция!!

Alien_Rage

RePack

fifa19

RePack

Assassins Creed: Odyssey

RePack

NEED FOR SPEED™ PAYBACK

4 сезон

9 сезон

Бесстыжие 9 сезон

Все сериалы

все сериалы на PB.wtf

RePack

FAR CRY 5
  

Флэш / The Flash / Сезон: 4 / Серии 1-23 из 23 (Дэвид Наттер / David Nutter) [2017, США, фантастика, боевик, драма, WEBRip] MVO [BaibaKo] pb.wtf

Флэш через торрент pb.wtf

Размер: 11.4 GB | Добавлен: 2 года 5 мес. назад | Торрент скачан:7 раз
Скачать  

19-01-2018 00:44 Флэш Скачать торрент  


Флэш / The Flash

«Discover what makes a hero»


  • Год выпуска: 2017
  • Страна: США
  • Жанр: фантастика, боевик, драма, приключения
  • Продолжительность: ~ 00:42:00 (Серия)
  • Перевод: Профессиональный многоголосый [BaibaKo]
  • Режиссер: Дэвид Наттер / David Nutter
  • В ролях:

    Грант Гастин (Barry Allen), Кэндис Паттон (Iris West), Даниэль Панабэйкер (Caitlin Snow), Карлос Валдес (Cisco Ramon), Томас Кэвэна (Dr. Harrison Wells), Джесси Л. Мартин (Joe West), Кейнан Лонсдейл (Wally West), Рик Коснетт (Eddie Thawne), Патрик Сабонгуй (Captain David Singh), Тедди Сирс (Jay Garrick), Джон Уэсли Шипп (Henry Allen), Вайолетт Бин (Jesse Wells)


  • Из-за несчастного случая судмедэксперт Барри Аллен приобретает способность передвигаться с невероятной скоростью. Этот случай делает из него супергероя, которым он всегда мечтал стать. Защищая город, как ангел-хранитель, делая невозможное, спасая жизни со скоростью вспышки, по подсказке Оливера Куина (Стрела), он берёт себе и соответствующее имя - Флэш.
    Сериал основан на супергерое "DC Comics" по имени Флэш (Барри Аллен), борце с преступностью в костюме, который был создан Робертом Кнайгером, Джоном Брумом и Кармином Инфантино. Является спин-оффом сериала «Стрела» и происходит в той же вселенной.
  • Рейтинг:

    rating
  • Качество: WEBRip
  • Формат: AVI
  • Видео кодек: XviD
  • Аудио кодек: MP3
  • Видео: 1495 Кбит/сек, 720*400 (16:9), в 23,976 (24000/1001) кадра/сек, MPEG-4 Visual (XviD)
  • Аудио №1: русский 192 Кбит/сек, 48,0 КГц, 2 канала, MPEG Audio (MP3) |[BaibaKo]|
  • Релиз от: GEKADOL

    Внимание! Раздача ведётся путём добавления новых серий; при каждом добавлении создаётся новый торрент. Чтобы начать докачку новой серии, пользователям необходимо сделать следующее:
    (1) остановить скачивание,
    (2) удалить старый торрент у себя из клиента (старые серии удалять не надо),
    (3) скачать новый торрент и запустить его у себя в клиенте вместо старого, при этом указать клиенту путь в старую папку куда и должно происходить скачивание новых серий.
    Ваш клиент при этом должен произвести хеширование (проверку) старой папки (если не производит сам - помогите ему сделать это), и будет докачивать только те серии которых у вас ещё нет. Старые серии при этом не удаляются, а продолжают раздаваться!
    Eсли вы уже удалили старые серии, то предотвратить повторную закачку старых серий можно, отжав галочку в соответствующих местах при запуске нового торрента. По возможности, желательно не удалять старые серии как можно дольше чтобы релизёр не столько продолжал раздавать старые серии, а смог сконцентрироваться на новых.
    Общее
    Полное имя : G:\Флэш (The Flash 4) XviD\The.Flash.s04e10.WEBRip.XviD.Rus.Eng.BaibaKo.tv.avi
    Формат : AVI
    Формат/Информация : Audio Video Interleave
    Размер файла : 509 Мбайт
    Продолжительность : 41 м. 56 с.
    Общий поток : 1697 Кбит/сек
    Библиотека кодирования : Boilsoft AVI tool build 30012/release

    Видео
    Идентификатор : 0
    Формат : MPEG-4 Visual
    Профиль формата : Advanced Simple@L5
    Настройки формата : BVOP2
    Параметр BVOP формата : 2
    Параметр QPel формата : Нет
    Параметр GMC формата : Без точки перехода
    Параметр матрицы формата : Default (H.263)
    Идентификатор кодека : XVID
    Идентификатор кодека/Подсказка : XviD
    Продолжительность : 41 м. 56 с.
    Битрейт : 1495 Кбит/сек
    Ширина : 720 пикселей
    Высота : 400 пикселей
    Соотношение сторон : 16:9
    Частота кадров : 23,976 (24000/1001) кадра/сек
    Цветовое пространство : YUV
    Субдискретизация насыщенности : 4:2:0
    Битовая глубина : 8 бит
    Тип развёртки : Прогрессивная
    Метод сжатия : С потерями
    Бит/(Пиксели*Кадры) : 0.217
    Размер потока : 449 Мбайт (88%)
    Библиотека кодирования : XviD 67

    Аудио
    Идентификатор : 1
    Формат : MPEG Audio
    Версия формата : Version 1
    Профиль формата : Layer 3
    Настройки формата : Joint stereo / MS Stereo
    Идентификатор кодека : 55
    Идентификатор кодека/Подсказка : MP3
    Продолжительность : 41 м. 56 с.
    Вид битрейта : Постоянный
    Битрейт : 192 Кбит/сек
    Каналы : 2 канала
    Частота : 48,0 КГц
    Метод сжатия : С потерями
    Задержка видео : 7 мс.
    Размер потока : 57,6 Мбайт (11%)
    Выравнивание : Разделение по промежуткам
    Продолжительность промежутка : 42 мс. (1,00 видеокадр)
    Время предзагрузки промежутка : 500 мс.
    Библиотека кодирования : LAME3.99.5ЄЄЄЄЄЄЄЄЄЄ





    Скриншоты:
    скриншот   скриншот   скриншот   скриншот   скриншот   скриншот   скриншот  
    скриншот  

    Раздача ведётся путём добавления новых серий. Добавлена 21-23 серия (03.06.2018).Просьба перекачать торрент файл.

    pb.wtf



  • Скачать Флэш через торрент http://pic1.kartinco.top/images/11/f9ufq.jpg Скачать фильм Флэш через торрент бесплантно в хорошем качестве qw.png Из-за несчастного случая судмедэксперт Барри Аллен приобретает способность передвигаться с невероятной скоростью. Этот случай ... 8.5 10 6
    Info! Золотая раздача, скачанное не засчитывается.
    Торрент: Зарегистрирован [2018-06-03 02:45] · скачан: 7 раз
    Статус: √ проверено
    Размер: 11.4 GB
    Как cкачать? Как скачать Флэш через торрент | qTorrent

    % Раздел Тема Автор DL S | L
    Зарубежные сериалы [ 28.19 GB ] Флэш / The Flash / Сезон: 4 / Серии: 1-23 из 23 [2017 WEBRip 720p] MVO [Profix Media] bober100 Скачать
    1 | 0
    Зарубежные сериалы [ 40.9 GB ] Флэш / The Flash / Сезон: 4 / Серии: 1-23 из 23 [2017 WEB-DL 1080p] MVO [LostFilm] bober100 Скачать
    1 | 0
    Зарубежные сериалы [ 11.55 GB ] Флэш / The Flash / Сезон: 4 / Серии: 1-23 из 23 [2017 WEBRip] MVO [Profix Media] bober100 Скачать
    1 | 0
    Зарубежные сериалы [ 43.38 GB ] Флэш / The Flash / Сезон: 4 / Серии: 1-23 из 23 [2017 WEBRip 1080p] MVO [Profix Media] bober100 Скачать
    1 | 0
    Зарубежные сериалы [ 19.54 GB ] Флэш / The Flash / Сезон: 4 / Серии: 1-23 из 23 [2017 HDTVRip 720p] DVO [Sunshine Studio] bober100 Скачать
    1 | 0
    Зарубежные сериалы [ 11.58 GB ] Флэш / The Flash / Сезон: 4 / Серии: 1-23 из 23 [2017 HDTVRip] DVO [Sunshine Studio] bober100 Скачать
    1 | 0
    Зарубежные сериалы [ 37.24 GB ] Флэш / The Flash / Сезон: 4 / Серии 1-23 из 23 [2017 WEBRip 720p] MVO [BaibaKo] GEKADOL Скачать
    1 | 0

    28-11-2019 20:33  

    Отключить всю рекламу на сайте

    20-06-2018 14:11 Флэш Скачать торрент  

    Встаньте на раздачуpb.wtf



      Дорогой пользователь! Огромная просьба, поблагодарите релизера, оцените раздачу и оставьте свои комментарий, если Вы скачали Флэш через торрент бесплатно! Внесите свою лепту в развитие PiratBit!
      Комментировать посты могут только пользователи прошедшие не сложную регистрацию
      Показать сообщения:    

      Флэш через торрент
      Скачать бесплатно Флэш
      Флэш скачать торрент
      Флэш смотреть онлайн
      Cкачать фильм Флэш бесплатно
      Флэш скачать торрент в хорошем качестве
      Флэш смотреть онлайн бесплатно в хорошем качестве


      Вы не можете начинать темы
      Вы не можете отвечать на сообщения
      Вы не можете редактировать свои сообщения
      Вы не можете удалять свои сообщения
      Вы не можете голосовать в опросах
      Вы не можете прикреплять файлы к сообщениям
      Вы можете скачивать файлы