Присоединяйтесь к нам в Telegram!, здесь всегда актуальный адрес сайта, оперативная поддержка и многое другое!!

>

5.9

iTunes

7.4

iTunes

9.4

1 сезон

1

7.4

2 сезон

7.2

iTunes

7.3

1 сезон

13

6.1

iTunes

8.3

GOG

30

ULTIMATE

pack

9.9

Лицензия

ВАЖНО

ИГРА 18+

pack

7.3

RePack

MK11

7.7

RePack

jed

7.8

RePack

fifa19

8.5

RePack

RDR2

RePack

NEED FOR SPEED™ PAYBACK

5 сезон

9 сезон

Бесстыжие 9 сезон

Все сериалы

все сериалы на PB.wtf

RePack

FAR CRY 5

Anonymous, доброй ночи, мы катастрофически не успеваем собрать деньги на оплату серверов, помогите нам пожалуйста 5,10,15р., для нас важна любая помощь . В качестве благодарности мы отключим Вам всю рекламу на сайте (укажите свой ник в строку Ваше имя)!

×
  
Magnet ссылка

Полет / Flight from tavinest [2017 г., Pop, WEBRip 1080p] pb.wtf

Полет через торрент pb.wtf

Размер: 220 MB | Добавлен: 3 года 10 мес. назад | Торрент скачан:25 раз
Смотреть онлайн Полет | Скачать    Ребята, помогите собрать деньги на оплату серверов!!!

19-01-2018 01:38 Полет Скачать торрент  

Полет / Flight from tavinest

Год выпуска: 2017
Страна: Россия
Жанр: Pop
Автор исполнитель: tavinest
Продолжительность: 00:03:29
Перевод: Не требуется

Описание:
Трехминутный ролик с пейзажами и прекрасной музыкой (дебют)

Качество: WEBRip 1080p
Формат: MP4
Видео кодек: AVC
Аудио кодек: AAC
Видео: 1920x1080, 29.97fps, 8647 kbps
Аудио: 44100 Hz, 2 сh (stereo), 192 kbps
Общее
Полное имя : E:\Tavinest_Flight.mp4
Формат : MPEG-4
Профиль формата : Base Media
Идентификатор кодека : isom (isom/iso2/avc1/mp41)
Размер файла : 220 Мбайт
Продолжительность : 3 м. 29 с.
Общий поток : 8845 Кбит/сек
Программа кодирования : Lavf57.71.100

Видео
Идентификатор : 1
Формат : AVC
Формат/Информация : Advanced Video Codec
Профиль формата : Main@L4
Настройки формата : CABAC / 2 Ref Frames
Параметр CABAC формата : Да
Параметр RefFrames формата : 2 кадра
Идентификатор кодека : avc1
Идентификатор кодека/Информация : Advanced Video Coding
Продолжительность : 3 м. 29 с.
Битрейт : 8646 Кбит/сек
Ширина : 1920 пикселей
Высота : 1080 пикселей
Соотношение сторон : 16:9
Режим частоты кадров : Постоянный
Частота кадров : 29,970 (30000/1001) кадров/сек
Цветовое пространство : YUV
Субдискретизация насыщенности : 4:2:0
Битовая глубина : 8 бит
Тип развёртки : Прогрессивная
Бит/(Пиксели*Кадры) : 0.139
Размер потока : 216 Мбайт (98%)

Аудио
Идентификатор : 2
Формат : AAC
Формат/Информация : Advanced Audio Codec
Профиль формата : LC
Идентификатор кодека : mp4a-40-2
Продолжительность : 3 м. 29 с.
Вид битрейта : Постоянный
Битрейт : 192 Кбит/сек
Каналы : 2 канала
Расположение каналов : Front: L R
Частота : 44,1 КГц
Частота кадров : 43,066 кадра/сек (1024 SPF)
Метод сжатия : С потерями
Размер потока : 4,77 Мбайт (2%)
Default : Да
AlternateGroup/String : 1
pb.wtf



Скачать Полет через торрент https://pic1.kartinco.top/images/11/w3znd.jpg Скачать, смотреть онлайн Полет бесплантно в хорошем качестве Описание:Трехминутный ролик с пейзажами и прекрасной музыкой ... 10 10 3
Торрент: Зарегистрирован [2018-01-19 01:38] · скачан: 25 раз
Статус: √ проверено
Размер: 220 MB
Как cкачать? Как скачать Полет через торрент | UTorrent

28-11-2019 20:33  

Отключить всю рекламу на сайте

    Дорогой пользователь! Огромная просьба, поблагодарите релизера, оцените раздачу и оставьте свои комментарий, если Вы скачали Полет через торрент бесплатно!
    Комментировать посты могут только пользователи прошедшие не сложную регистрацию
    Показать сообщения:    

    Полет через торрент
    Скачать бесплатно Полет
    Полет скачать торрент
    Полет смотреть онлайн
    Cкачать фильм Полет бесплатно
    Полет скачать торрент в хорошем качестве
    Полет смотреть онлайн бесплатно в хорошем качестве


    Вы не можете начинать темы
    Вы не можете отвечать на сообщения
    Вы не можете редактировать свои сообщения
    Вы не можете удалять свои сообщения
    Вы не можете голосовать в опросах
    Вы не можете прикреплять файлы к сообщениям
    Вы можете скачивать файлы