Ссылка на приватное зеркало нашего сайта всего за 1$. Внимание количество ограничено!!!

2 сезон

iTunes

1 сезон

1

2 сезон

2 сезон

iTunes

1 сезон

RePack

30

Ultimate

ВАЖНО

ИГРА 18+

pack

RePack

MK11
pack

Забери бонус

RePack

jed

!!Акция!!

Alien_Rage

RePack

fifa19

RePack

Assassins Creed: Odyssey

RePack

NEED FOR SPEED™ PAYBACK

4 сезон

9 сезон

Бесстыжие 9 сезон

Все сериалы

все сериалы на PB.wtf

RePack

FAR CRY 5
  

Черная молния / Black Lightning / Сезон: 1 / Серии: 1-13 из 13 (Салим Акил, Билле Вудрафф) [2018, фантастика, боевик, WEB-DLRip] MVO [LostFilm] pb.wtf

Черная молния через торрент pb.wtf

Размер: 6.4 GB | Добавлен: 2 года 7 мес. назад | Торрент скачан:46 раз
Скачать  

19-01-2018 02:13 Черная молния Скачать торрент  

Черная молния / Black LightningГод выпуска: 2018
Страна: США
Жанр: фантастика, боевик
Продолжительность: 00:44:00
Перевод: Профессиональный многоголосый | LostFilm
Субтитры: отсутствуют

Режиссер: Салим Акил, Билле Вудрафф

rating

В ролях:

Грегг Генри, Кресс Уильямс, Нафиса Уильямс, Чайна Энн МакКлейн, Кристин Адамс,Донни Керрингтон, Чарлби Дин Крик, Шеин Момпремиа, Энтони Рейнольдс, Чантал Тхюй

Описание:

Сериал посвящен супергерою DC Черной молнии, который вынужден вернуться из добровольной отставки, когда опасная банда начинает угрожать спокойствию жителей его города.

Качество: WEB-DLRip | чистый видеоряд |
Формат: AVI

Видео: XviD, ~ 1400 Кбит/с, 720х400
Аудио#1: Русский (МР3, 2 ch, 128 Кбит/с)
Аудио#2: английский (МР3, 2 ch, 128 Кбит/с)
скриншот  скриншот  скриншот  

Общее
Полное имя : D:\Black Lightning (Season 01) LostFilm\Black.Lightning.S01E01.WEB-DLRip.Rus.Eng.LostFilm.avi
Формат : AVI
Формат/Информация : Audio Video Interleave
Размер файла : 501 Мбайт
Продолжительность : 42 м. 18 с.
Общий поток : 1655 Кбит/сек
Программа кодирования : VirtualDubMod 1.5.10.3 | www.virtualdub-fr.org || (build 2550/release)
Библиотека кодирования : VirtualDubMod build 2550/release

Видео
Идентификатор : 0
Формат : MPEG-4 Visual
Профиль формата : Advanced Simple@L5
Параметр BVOP формата : 1
Параметр QPel формата : Нет
Параметр GMC формата : Без точки перехода
Параметр матрицы формата : Default (MPEG)
Идентификатор кодека : XVID
Идентификатор кодека/Подсказка : XviD
Продолжительность : 42 м. 18 с.
Битрейт : 1385 Кбит/сек
Ширина : 720 пикселей
Высота : 400 пикселей
Соотношение сторон : 16:9
Частота кадров : 23,976 (23976/1000) кадра/сек
Цветовое пространство : YUV
Субдискретизация насыщенности : 4:2:0
Битовая глубина : 8 бит
Тип развёртки : Прогрессивная
Метод сжатия : С потерями
Бит/(Пиксели*Кадры) : 0.201
Размер потока : 419 Мбайт (84%)
Библиотека кодирования : XviD 73

Аудио #1
Идентификатор : 1
Формат : MPEG Audio
Версия формата : Version 1
Профиль формата : Layer 3
Режим : Joint stereo
Расширение режима : MS Stereo
Идентификатор кодека : 55
Идентификатор кодека/Подсказка : MP3
Продолжительность : 42 м. 18 с.
Вид битрейта : Постоянный
Битрейт : 128 Кбит/сек
Каналы : 2 канала
Частота : 48,0 КГц
Метод сжатия : С потерями
Размер потока : 38,7 Мбайт (8%)
Выравнивание : Соединение по промежуткам
Продолжительность промежутка : 42 мс. (1,00 видеокадр)
Время предзагрузки промежутка : 504 мс.

Аудио #2
Идентификатор : 2
Формат : MPEG Audio
Версия формата : Version 1
Профиль формата : Layer 3
Режим : Joint stereo
Расширение режима : MS Stereo
Идентификатор кодека : 55
Идентификатор кодека/Подсказка : MP3
Продолжительность : 42 м. 18 с.
Вид битрейта : Постоянный
Битрейт : 128 Кбит/сек
Каналы : 2 канала
Частота : 48,0 КГц
Метод сжатия : С потерями
Размер потока : 38,7 Мбайт (8%)
Выравнивание : Соединение по промежуткам
Продолжительность промежутка : 42 мс. (1,00 видеокадр)
Время предзагрузки промежутка : 504 мс.

Когда раздача ведётся путём добавления новых серий, при каждом добавлении создётся новый торрент. Чтобы начать докачку новой серии, пользователям необходимо сделать следующее:
(1) остановить скачивание,
(2) удалить старый торрент у себя из клиента (старые серии удалять не надо),
(3) скачать новый торрент и запустить его у себя в клиенте вместо старого, при этом указать клиенту путь в старую папку, куда и должно происходить скачивание новых серий.
Ваш клиент при этом должен произвести хеширование (проверку) старой папки (если не производит сам - помогите ему сделать это), и будет докачивать только те серии, которых у вас ещё нет. Старые серии при этом не удаляются, а продолжают раздаваться!
Eсли вы уже удалили старые серии, то предотвратить повторную закачку старых серий можно, отжав галочку в соответсвующих местах при запуске нового торрента. По возможности, желательно не удалять старые серии как можно дольше, чтобы релизёр не столько продолжал раздавать старые серии, а смог сконцентрироваться на новых.
pb.wtf



Скачать Черная молния через торрент http://i102.fastpic.ru/big/2018/0118/cf/becb72001ba08fc6894dc31eb6731fcf.jpg Скачать фильм Черная молния через торрент бесплантно в хорошем качестве Описание: Сериал посвящен супергерою DC Черной молнии, который вынужден вернуться из добровольной отставки, когда опасная банда начинает ... 10 10 3
Торрент: Зарегистрирован [2018-04-19 20:07] · скачан: 46 раз
Статус: √ проверено
Размер: 6.4 GB
Как cкачать? Как скачать Черная молния через торрент | qTorrent

% Раздел Тема Автор DL S | L
Зарубежные сериалы [ 14.44 GB ] Черная молния / Black Lightning / Сезон: 1 / Серия: 1-13 из 13 [2018 WEB-DL 720p] MVO [Good People] bober100 Скачать
1 | 0
Зарубежные сериалы [ 13.47 GB ] Черная молния / Black Lightning / Сезон: 1 / Серии: 1-13 из 13 [2018 WEBRip 720p] MVO [Jaskier] bober100 Скачать
1 | 0
Зарубежные сериалы [ 6.72 GB ] Черная молния / Black Lightning / Сезон: 1 / Серии: 1-13 из 13 [2018 WEB-DLRip] MVO [NewStudio] bober100 Скачать
1 | 0
Зарубежные сериалы [ 18.33 GB ] Черная молния / Black Lightning / Сезон: 1 / Серии: 1-13 из 13 [2018 WEB-DL 720p] MVO [NewStudio] bober100 Скачать
1 | 0
Зарубежные сериалы [ 5.82 GB ] Черная молния / Black Lightning / Сезон 1 / Серия 1-13 из 13 [2018 WEB-DLRip] [MVO] killermax2013 Скачать
1 | 0
Зарубежные сериалы [ 24.38 GB ] Черная молния / Black Lightning / Сезон 1 / Серия 1-13 из 13 [2018 WEB-DLRip 1080p] [MVO] killermax2013 Скачать
1 | 0
Зарубежные сериалы [ 5.96 GB ] Черная молния / Black Lightning / Сезон 1 / Серия 1-13 из 13 [2018 HDTVRip] [MVO] killermax2013 Скачать
1 | 0

28-11-2019 20:33  

Отключить всю рекламу на сайте

    Дорогой пользователь! Огромная просьба, поблагодарите релизера, оцените раздачу и оставьте свои комментарий, если Вы скачали Черная молния через торрент бесплатно! Внесите свою лепту в развитие PiratBit!
    Комментировать посты могут только пользователи прошедшие не сложную регистрацию
    Показать сообщения:    

    Черная молния через торрент
    Скачать бесплатно Черная молния
    Черная молния скачать торрент
    Черная молния смотреть онлайн
    Cкачать фильм Черная молния бесплатно
    Черная молния скачать торрент в хорошем качестве
    Черная молния смотреть онлайн бесплатно в хорошем качестве


    Вы не можете начинать темы
    Вы не можете отвечать на сообщения
    Вы не можете редактировать свои сообщения
    Вы не можете удалять свои сообщения
    Вы не можете голосовать в опросах
    Вы не можете прикреплять файлы к сообщениям
    Вы можете скачивать файлы