Ссылка на приватное зеркало всего за 1$. Внимание количество ограничено!!!

OK

1+1

iTunes

мы

OK

1

WEB-DLRip

Джокер

Пифагор

Ведьмак / The Witcher сериал

iTunes

ПШазам

ОК

Оно 2

iTunes

30
pack

Вам бонус

ВАЖНО

!!Акция!!

Alien_RageХит недели

RePack

Resident Evil 21

ИГРА 18+

pack

RePack

jed

RePack

fifa19

RePack

Assassins Creed: Odyssey

RePack

NEED FOR SPEED™ PAYBACK

4 сезон

9 сезон

Бесстыжие 9 сезон

Все сериалы

все сериалы на PB.wtf

RePack

FAR CRY 5
  

Человек с Земли: Голоцен / The Man from Earth: Holocene (Ричард Шенкман) [2017, фантастика, фэнтези, драма, BDRip 720p] MVO ["Синема УС"] pb.wtf

Человек с Земли: Голоцен через торрент pb.wtf

Размер: 4.16 GB | Добавлен: 2 года назад | Торрент скачан:271 раз
Скачать  

19-01-2018 04:40 Человек с Земли: Голоцен Скачать торрент  

Человек с Земли: Голоцен / The Man from Earth: HoloceneГод выпуска: 2017
Страна: США
Жанр: фантастика, фэнтези, драма
Продолжительность: 01:41:12
Перевод: Любительский (многоголосый) ["Синема УС"]
Субтитры: отсутствуют

Режиссер: Ричард Шенкман

rating

В ролях:

Майкл Дорн, Бриттани Каррен, Ванесса Уильямс, Уильям Кэтт, Стерлинг Найт, Джон Биллингсли, Даг Хейли, Дэвид Ли Смит, Дави Сантос, Тэрин Лук

Описание:

Десять лет назад Джон Олдман оставил свой пост профессора колледжа и рассказал коллегам, что на самом деле он — многотысячелетний пещерный человек. Так началось путешествие сквозь историю и философские размышления бессмертного человека.

Качество: BDRip 720p
Формат: MKV
Видео кодек: H.264
Аудио кодек: AC3

Видео: 5434 Кбит/с, 1280x720
Аудио#1: AC3, 2 ch, 448 Кбит/с

скриншот  скриншот  скриншот  

Общее
Уникальный идентификатор : 237553458644025111090334582711087856309 (0xB2B721C6C9F704B79BAD6D1533E8FAB5)
Полное имя : D:\The.Man.from.Earth.Holocene.2017.P.BDRip.72Op_KOSHARA.mkv
Формат : Matroska
Версия формата : Version 2
Размер файла : 4,16 Гбайт
Продолжительность : 1 ч. 41 м.
Режим общего битрейта : Переменный
Общий поток : 5884 Кбит/сек
Дата кодирования : UTC 2018-01-18 14:28:09
Программа кодирования : mkvmerge v8.3.0 ('Over the Horizon') 64bit
Библиотека кодирования : libebml v1.3.1 + libmatroska v1.4.2

Видео
Идентификатор : 1
Формат : AVC
Формат/Информация : Advanced Video Codec
Профиль формата : High@L4.1
Параметр CABAC формата : Да
Параметр ReFrames формата : 9 кадров
Идентификатор кодека : V_MPEG4/ISO/AVC
Продолжительность : 1 ч. 41 м.
Вид битрейта : Переменный
Битрейт : 5434 Кбит/сек
Максимальный битрейт : 6000 Кбит/сек
Ширина : 1280 пикселей
Высота : 720 пикселей
Соотношение сторон : 16:9
Режим частоты кадров : Постоянный
Частота кадров : 23,976 (24000/1001) кадра/сек
Стандарт вещания : Component
Цветовое пространство : YUV
Субдискретизация насыщенности : 4:2:0
Битовая глубина : 8 бит
Тип развёртки : Прогрессивная
Бит/(Пиксели*Кадры) : 0.241
Размер потока : 3,76 Гбайт (90%)
Default : Да
Forced : Нет
Цветовой диапазон : Limited
Основные цвета : BT.709
Характеристики трансфера : BT.709
Коэффициенты матрицы : BT.709

Аудио
Идентификатор : 2
Формат : AC-3
Формат/Информация : Audio Coding 3
Расширение режима : CM (complete main)
Параметр Endianness формата : Big
Идентификатор кодека : A_AC3
Продолжительность : 1 ч. 41 м.
Вид битрейта : Постоянный
Битрейт : 448 Кбит/сек
Каналы : 2 канала
Расположение каналов : Front: L R
Частота : 48,0 КГц
Частота кадров : 31,250 кадров/сек (1536 spf)
Метод сжатия : С потерями
Размер потока : 324 Мбайт (8%)
Default : Да
Forced : Нет

pb.wtf



Скачать Человек с Земли: Голоцен через торрент http://i101.fastpic.ru/big/2018/0119/d2/bd9b27083b99c40e037a36855aeed2d2.jpg Скачать фильм Человек с Земли: Голоцен через торрент бесплантно в хорошем качестве Описание: Десять лет назад Джон Олдман оставил свой пост профессора колледжа и рассказал коллегам, что на самом деле он — многотысячелетний ... 8.7 10 7
Торрент: Зарегистрирован [2018-01-19 04:40] · скачан: 271 раз
Статус: # сомнительно
Размер: 4.16 GB
Как cкачать? Как скачать Человек с Земли: Голоцен через торрент | qTorrent

% Раздел Тема Автор DL S | L
T Фильмы (мультфильмы) cо спонсором показа (Новинки AVI/MKV) [ 1.46 GB ] Человек с Земли: Голоцен / The Man from Earth: Holocene [2017 HDRip] MVO ["Синема УС"] bober100 Скачать
1 | 0

28-11-2019 20:33  

Отключить всю рекламу на сайте

    Дорогой пользователь! Огромная просьба, поблагодарите релизера, оцените раздачу и оставьте свои комментарий, если Вы скачали Человек с Земли: Голоцен через торрент бесплатно! Внесите свою лепту в развитие PiratBit!
    Комментировать посты могут только пользователи прошедшие не сложную регистрацию
    Показать сообщения:    

    Человек с Земли: Голоцен через торрент
    Скачать бесплатно Человек с Земли: Голоцен
    Человек с Земли: Голоцен скачать торрент
    Человек с Земли: Голоцен смотреть онлайн
    Cкачать фильм Человек с Земли: Голоцен бесплатно
    Человек с Земли: Голоцен скачать торрент в хорошем качестве
    Человек с Земли: Голоцен смотреть онлайн бесплатно в хорошем качестве


    Вы не можете начинать темы
    Вы не можете отвечать на сообщения
    Вы не можете редактировать свои сообщения
    Вы не можете удалять свои сообщения
    Вы не можете голосовать в опросах
    Вы не можете прикреплять файлы к сообщениям
    Вы можете скачивать файлы