Достать ножи: Стеклянная луковица

MVO

Добыча

Дубляж

Уэнсдэй

1 сезон

Тор

Дубляж

13 клиническая

1 сезон

Жестокая ночь

MVO

Одни из нас

1 сезон

Deluxe

pack

Рекомендуем

30

Пиратка

ВАЖНО

ВАЖНО

Ghostwire

Пиратка

jed

RePack

nioh2

RePack

RDR2

RePack

NEED FOR SPEED™ PAYBACK

RePack

скачать торрент

Кинопоиск HD

Острые козырьки 6 сезон

6 сезон

FAR CRY 6

RePack

скачать торрент

Лицензия

скачать торрент

MVO

1

1 сезон

скачать торрент

1 сезон

скачать торрент

Лицензия

  

На дорогах войны (Леон Сааков) [1958, СССР, военный, SATRip от AVP Studio]

На дорогах войны через торрент pb.wtf

Размер: 1.09 GB | Добавлен: 5 лет назад | Торрент скачан:21 раз
Смотреть онлайн | Скачать | Поддержите нас   

19-01-2018 08:59 На дорогах войны Скачать торрент  

На дорогах войны
Страна: СССР
Производство: Мосфильм

Жанр: военный
Год выпуска: 1959
Продолжительность: 01:21:58

Перевод: Не требуется
Cубтитры: нет
Оригинальная аудиодорожка: русский

Режиссер: Леон Сааков

В ролях:
Всеволод Санаев, Анатолий Кузнецов, Юрий Соловьёв, Евгений Шутов, Ия Арепина, Харальд Страхов, Борис Муравьев, Юлия Цоглин, Олег Мокшанцев, Юрий Киреев, Михаил Бочаров...
Об актёрах подробней

Описание:
Прообразом героя картины стал военный кинооператор Владимир Сущинский, погибший под Бреслау в феврале 1945 года с кинокамерой в руках. Великая Отечественная война. От Москвы до Севастополя и от Мурманска до Москвы - везде смерть, беды, потери. Кинооператор Владимир Сушков (Анатолий Кузнецов). Про него можно сказать словами из звучащей в фильме "Песни о Севастополе": "Я по стольким дорогам протопал". Он снимает суровую повесть о неизвестных героях и каждовневном подвиге всех тех, кто был на войне.

Исходник: DVB
Качество видео: SATRip
Формат видео: AVI

Видео: 688х512 (4:3), 25 fps, XviD ~ 1702 kbps avg, 0.193 bit/pixel
Аудио: 48 kHz, Dolby Digital AC3 2.0, 192 kbps

Раздача от:
Общее
Полное имя : Na.dorogah.voyny.1959.SATRip_[New-team]_by_AVP_Studio.avi
Формат : AVI
Формат/Информация : Audio Video Interleave
Размер файла : 1,09 Гбайт
Продолжительность : 1 ч. 21 м.
Общий поток : 1904 Кбит/сек
Программа кодирования : VirtualDubMod 1.5.10.3 | www.virtualdub-fr.org || (build 2550/release)
Библиотека кодирования : VirtualDubMod build 2550/release

Видео
Идентификатор : 0
Формат : MPEG-4 Visual
Профиль формата : Advanced [email protected]
Настройки формата : BVOP1 / Custom Matrix
Параметр BVOP формата : 1
Параметр QPel формата : Нет
Параметр GMC формата : Без точки перехода
Параметр матрицы формата : Выборочная
Идентификатор кодека : XVID
Идентификатор кодека/Подсказка : XviD
Продолжительность : 1 ч. 21 м.
Битрейт : 1702 Кбит/сек
Ширина : 688 пикселей
Высота : 512 пикселей
Соотношение сторон : 4:3
Частота кадров : 25,000 кадров/сек
Цветовое пространство : YUV
Субдискретизация насыщенности : 4:2:0
Битовая глубина : 8 бит
Тип развёртки : Прогрессивная
Метод сжатия : С потерями
Бит/(Пиксели*Кадры) : 0.193
Размер потока : 998 Мбайт (89%)
Библиотека кодирования : XviD 73

Аудио
Идентификатор : 1
Формат : AC-3
Формат/Информация : Audio Coding 3
Идентификатор кодека : 2000
Продолжительность : 1 ч. 21 м.
Вид битрейта : Постоянный
Битрейт : 192 Кбит/сек
Каналы : 2 канала
Расположение каналов : Front: L R
Частота : 48,0 КГц
Частота кадров : 31,250 кадров/сек (1536 SPF)
Битовая глубина : 16 бит
Метод сжатия : С потерями
Размер потока : 113 Мбайт (10%)
Выравнивание : Разделение по промежуткам
Продолжительность промежутка : 40 мс. (1,00 видеокадр)
Время предзагрузки промежутка : 500 мс



Скачать На дорогах войны через торрент http://i102.fastpic.ru/big/2018/0119/12/5e67f5bb45bbddb7faca19ba01870412.png Скачать, смотреть онлайн На дорогах войны бесплантно в хорошем качестве Описание:Прообразом героя картины стал военный кинооператор Владимир Сущинский, погибший под Бреслау в феврале 1945 года с кинокамерой в ... 10 10 1
Info! Золотая раздача, скачанное не засчитывается.
Торрент: Зарегистрирован [2018-01-19 08:59] · скачан: 21 раз
Статус: √ проверено
Размер: 1.09 GB
Как cкачать? Как скачать На дорогах войны через торрент | UTorrent

% Раздел Тема Автор DL S | L
Кино СССР [ 1.09 GB ] На дорогах войны | | SATRip-AVC от AVP Studio AVP Studio Скачать
1 | 0

28-11-2019 20:33  


Отключить вcю реклaмy на сайте, в т.ч. и в плеере онлайн просмотра!

    Дорогой пользователь! Огромная просьба, поблагодарите релизера, оцените раздачу и оставьте свои комментарий, если Вы скачали На дорогах войны через торрент бесплатно!!
    Комментировать посты могут только пользователи прошедшие не сложную регистрацию
    Показать сообщения:    


    На дорогах войны через торрент
    Скачать бесплатно На дорогах войны
    На дорогах войны скачать торрент
    На дорогах войны смотреть онлайн
    Cкачать фильм На дорогах войны бесплатно
    На дорогах войны скачать торрент в хорошем качестве
    На дорогах войны смотреть онлайн бесплатно в хорошем качестве
    Вы не можете начинать темы
    Вы не можете отвечать на сообщения
    Вы не можете редактировать свои сообщения
    Вы не можете удалять свои сообщения
    Вы не можете голосовать в опросах
    Вы не можете прикреплять файлы к сообщениям
    Вы можете скачивать файлы
    На дорогах войны [1958, СССР, военный, SATRip от AVP Studio] смотреть онлайн, скачать торрент picoco.icu