Ссылка на приватное зеркало нашего сайта всего за 1$. Внимание количество ограничено!!!

2 сезон

iTunes

1 сезон

1

iTunes

iTunes

iTunes

1 сезон

RePack

30

ИГРА 18+

pack

ВАЖНО

!!Акция!!

Alien_RageХит недели

RePack

MK11
pack

Забери бонус

RePack

jed

!!Акция!!

Alien_Rage

RePack

fifa19

RePack

Assassins Creed: Odyssey

RePack

NEED FOR SPEED™ PAYBACK

4 сезон

9 сезон

Бесстыжие 9 сезон

Все сериалы

все сериалы на PB.wtf

RePack

FAR CRY 5
  

Kingsman: Золотое кольцо / Kingsman: The Golden Circle (Мэттью Вон) [2017, боевик, комедия, приключения, BDRip 1080p] DUB [Лицензия] pb.wtf

Kingsman: Золотое кольцо через торрент pb.wtf

Размер: 12.54 GB | Добавлен: 2 года 9 мес. назад | Торрент скачан:308 раз
Скачать  

19-01-2018 13:48 Kingsman: Золотое кольцо Скачать торрент  

Kingsman: Золотое кольцо / Kingsman: The Golden CircleГод выпуска: 2017
Страна: Великобритания США
Жанр: боевик, комедия, приключения
Продолжительность: 02:21:02
Перевод: Дублированный | Лицензия
Субтитры: Русские (full), английские

Режиссер: Мэттью Вон

rating

В ролях:

Тэрон Эджертон, Колин Фёрт, Марк Стронг, Джулианна Мур, Холли Берри, Педро Паскаль, Ченнинг Татум, Джефф Бриджес, Эдвард Холкрофт

Описание:

Когда штаб-квартиры секретной службы «Kingsman» уничтожены, и весь мир оказался в заложниках у неизвестных, британские суперагенты обнаруживают, что в один день вместе с их организацией была еще создана американская разведка — «Statesman». Теперь эти две элитные спецслужбы должны объединиться и бросить вызов общему безжалостному врагу, чтобы спасти мир, то есть заняться тем, что для Эггси становится обычным делом…

Качество: BDRip 1080p
Формат: MKV

Видео: MPEG-4 AVC, 1920x804, 10.0 Mbit/s, 23.976 fps
Аудио#1: 48 kHz, DTS, 5.1, 768 Kbps | Дублированный | RUS |
Аудио#2: 48 kHz, AC3, 5.1, 448 Kbps | Дублированный | RUS |
Аудио#3: 48 kHz, DTS, 5.1, 1510 Kbps | Оригинал | ENG |
скриншот   скриншот   скриншот   скриншот   скриншот  

General
Unique ID : 235261303533697851793462670616456466913 (0xB0FDADCDE7B3F69E1C07B6AC218A11E1)
Complete name : G:VideoSSDKingsman.The.Golden.Circle.2017.Lic.BDRip.1080p.ExKinoRay.mkv
Format : Matroska
Format version : Version 4 / Version 2
File size : 12.5 GiB
Duration : 2 h 21 min
Overall bit rate : 12.7 Mb/s
Movie name : Kingsman: The Golden Circle 2017 from ExKinoRay
Encoded date : UTC 2018-01-19 13:25:10
Writing application : mkvmerge v20.0.0 ('I Am The Sun') 64-bit
Writing library : libebml v1.3.5 + libmatroska v1.4.8

Video
ID : 1
Format : AVC
Format/Info : Advanced Video Codec
Format profile : High@L4.1
Format settings : CABAC / 5 Ref Frames
Format settings, CABAC : Yes
Format settings, ReFrames : 5 frames
Codec ID : V_MPEG4/ISO/AVC
Duration : 2 h 21 min
Bit rate : 10 000 kb/s
Width : 1 920 pixels
Height : 804 pixels
Display aspect ratio : 2.40:1
Frame rate mode : Constant
Frame rate : 23.976 (24000/1001) FPS
Color space : YUV
Chroma subsampling : 4:2:0
Bit depth : 8 bits
Scan type : Progressive
Bits/(Pixel*Frame) : 0.270
Stream size : 9.85 GiB (79%)
Writing library : x264 core 148 r2705 3f5ed56
Encoding settings : cabac=1 / ref=5 / deblock=1:-3:-3 / analyse=0x3:0x133 / me=umh / subme=11 / psy=1 / psy_rd=1.05:0.05 / mixed_ref=1 / me_range=32 / chroma_me=1 / trellis=2 / 8x8dct=1 / cqm=0 / deadzone=21,11 / fast_pskip=0 / chroma_qp_offset=-3 / threads=24 / lookahead_threads=4 / sliced_threads=0 / nr=0 / decimate=0 / interlaced=0 / bluray_compat=0 / constrained_intra=0 / bframes=8 / b_pyramid=2 / b_adapt=2 / b_bias=0 / direct=3 / weightb=1 / open_gop=0 / weightp=2 / keyint=240 / keyint_min=23 / scenecut=40 / intra_refresh=0 / rc_lookahead=50 / rc=2pass / mbtree=0 / bitrate=10000 / ratetol=1.0 / qcomp=0.60 / qpmin=0 / qpmax=69 / qpstep=4 / cplxblur=20.0 / qblur=0.5 / vbv_maxrate=50000 / vbv_bufsize=62500 / nal_hrd=none / filler=0 / ip_ratio=1.40 / pb_ratio=1.30 / aq=3:0.80
Language : English
Default : Yes
Forced : No

Audio #1
ID : 2
Format : DTS
Format/Info : Digital Theater Systems
Codec ID : A_DTS
Duration : 2 h 21 min
Bit rate mode : Constant
Bit rate : 768 kb/s
Channel(s) : 6 channels
Channel positions : Front: L C R, Side: L R, LFE
Sampling rate : 48.0 kHz
Frame rate : 93.750 FPS (512 SPF)
Bit depth : 24 bits
Compression mode : Lossy
Stream size : 775 MiB (6%)
Title : Dub [License]
Language : Russian
Default : Yes
Forced : No

Audio #2
ID : 3
Format : AC-3
Format/Info : Audio Coding 3
Codec ID : A_AC3
Duration : 2 h 21 min
Bit rate mode : Constant
Bit rate : 448 kb/s
Channel(s) : 6 channels
Channel positions : Front: L C R, Side: L R, LFE
Sampling rate : 48.0 kHz
Frame rate : 31.250 FPS (1536 SPF)
Bit depth : 16 bits
Compression mode : Lossy
Stream size : 452 MiB (4%)
Title : Dub [License]
Language : Russian
Service kind : Complete Main
Default : No
Forced : No

Audio #3
ID : 4
Format : DTS
Format/Info : Digital Theater Systems
Codec ID : A_DTS
Duration : 2 h 21 min
Bit rate mode : Constant
Bit rate : 1 509 kb/s
Channel(s) : 6 channels
Channel positions : Front: L C R, Side: L R, LFE
Sampling rate : 48.0 kHz
Frame rate : 93.750 FPS (512 SPF)
Bit depth : 24 bits
Compression mode : Lossy
Stream size : 1.49 GiB (12%)
Title : Original
Language : English
Default : No
Forced : No

Text #1
ID : 5
Format : UTF-8
Codec ID : S_TEXT/UTF8
Codec ID/Info : UTF-8 Plain Text
Duration : 2 h 19 min
Bit rate : 0 b/s
Count of elements : 14
Stream size : 418 Bytes (0%)
Title : Forced
Language : Russian
Default : Yes
Forced : No

Text #2
ID : 6
Format : UTF-8
Codec ID : S_TEXT/UTF8
Codec ID/Info : UTF-8 Plain Text
Duration : 2 h 13 min
Bit rate : 91 b/s
Count of elements : 1847
Stream size : 89.3 KiB (0%)
Title : Full
Language : Russian
Default : No
Forced : No

Text #3
ID : 7
Format : UTF-8
Codec ID : S_TEXT/UTF8
Codec ID/Info : UTF-8 Plain Text
Duration : 2 h 13 min
Bit rate : 55 b/s
Count of elements : 1882
Stream size : 54.2 KiB (0%)
Title : Full
Language : English
Default : No
Forced : No

Text #4
ID : 8
Format : UTF-8
Codec ID : S_TEXT/UTF8
Codec ID/Info : UTF-8 Plain Text
Duration : 2 h 13 min
Bit rate : 60 b/s
Count of elements : 2142
Stream size : 58.8 KiB (0%)
Title : SDH
Language : English
Default : No
Forced : No

Menu
00:00:00.000 : en:Chapter 01
00:04:51.958 : en:Chapter 02
00:09:39.454 : en:Chapter 03
00:13:36.607 : en:Chapter 04
00:18:54.300 : en:Chapter 05
00:24:57.287 : en:Chapter 06
00:28:43.347 : en:Chapter 07
00:32:52.304 : en:Chapter 08
00:39:18.731 : en:Chapter 09
00:43:21.849 : en:Chapter 10
00:48:26.570 : en:Chapter 11
00:53:54.106 : en:Chapter 12
00:58:31.258 : en:Chapter 13
01:05:04.901 : en:Chapter 14
01:09:52.522 : en:Chapter 15
01:13:34.744 : en:Chapter 16
01:19:41.860 : en:Chapter 17
01:23:45.103 : en:Chapter 18
01:28:55.288 : en:Chapter 19
01:33:25.225 : en:Chapter 20
01:40:14.759 : en:Chapter 21
01:45:03.255 : en:Chapter 22
01:49:38.489 : en:Chapter 23
01:55:15.992 : en:Chapter 24
02:01:40.835 : en:Chapter 25
02:05:44.036 : en:Chapter 26
02:12:36.407 : en:Chapter 27
02:15:15.274 : en:Chapter 28
pb.wtf



Скачать Kingsman: Золотое кольцо через торрент http://img12.lostpic.net/2017/12/28/ed3065f3cd714a816f0ec81d94946154.jpg Скачать фильм Kingsman: Золотое кольцо через торрент бесплантно в хорошем качестве Описание: Когда штаб-квартиры секретной службы «Kingsman» уничтожены, и весь мир оказался в заложниках у неизвестных, британские ... 9.9 10 9
Info! Золотая раздача, скачанное не засчитывается.
Торрент: Зарегистрирован [2018-01-19 13:48] · скачан: 308 раз
Статус: √ проверено
Размер: 12.54 GB
Как cкачать? Как скачать Kingsman: Золотое кольцо через торрент | qTorrent

% Раздел Тема Автор DL S | L
Ultra HD (UHD: 2K, 4K, 8K) — видео сверхвысокой чёткости [ 67.46 GB ] Kingsman: Золотое кольцо / Kingsman: The Golden Circle [2017 UHD BDRemux 2160p] DUB [] + 4xAVO sheker187 Скачать
1 | 0
Фильмы (Blu-ray, BD-Remux, HDDVD) [ 47.83 GB ] Kingsman: Золотое кольцо / Kingsman: The Golden Circle [2017 BD Remux 1080p] 3xAVO+2xDUB [] bober100 Скачать
1 | 0
Ultra HD (UHD: 2K, 4K, 8K) — видео сверхвысокой чёткости [ 58.21 GB ] Kingsman: Золотое кольцо / Kingsman: The Golden Circle [2017 UHD BDRemux 2160p] AVO [Ю.Сербин] +DUB [] bober100 Скачать
2 | 0
Фильмы [HD 720p, 1080p] (Хороший звук DUB, MVO) [ 7.17 GB ] Kingsman: Золотое кольцо / Kingsman: The Golden Circle [2017 BDRip 720p] DUB [] bober100 Скачать
2 | 0
Фильмы 2017 [DVDrip, WEB-DLRip, HDrip] (DUB, MVO) [ 2.19 GB ] Kingsman: Золотое кольцо / Kingsman: The Golden Circle [2017 BDRip-AVC] sokol_ok Скачать
1 | 0
Фильмы с авторской озвучкой [ 2.99 GB ] Kingsman: Золотое кольцо / Kingsman: The Golden Circle [2017 BDRip-AVC] AVO [Сербин] Ukr - ExKinoRay Enigma2010 Скачать
2 | 0
Фильмы (HD 720p, 1080p) (48-60 fps) [ 16.74 GB ] Kingsman: Золотое кольцо / Kingsman: The Golden Circle [2017 BDRip 1080p / 60 FPS Dub/ Original] Tiberiumsun69 Скачать
1 | 0

28-11-2019 20:33  

Отключить всю рекламу на сайте

19-01-2018 14:48 Kingsman: Золотое кольцо Скачать торрент  

кинопоиск 6.9???? чет не верится, ща гллянем pb.wtf



    Дорогой пользователь! Огромная просьба, поблагодарите релизера, оцените раздачу и оставьте свои комментарий, если Вы скачали Kingsman: Золотое кольцо через торрент бесплатно! Внесите свою лепту в развитие PiratBit!
    Комментировать посты могут только пользователи прошедшие не сложную регистрацию
    Показать сообщения:    

    Kingsman: Золотое кольцо через торрент
    Скачать бесплатно Kingsman: Золотое кольцо
    Kingsman: Золотое кольцо скачать торрент
    Kingsman: Золотое кольцо смотреть онлайн
    Cкачать фильм Kingsman: Золотое кольцо бесплатно
    Kingsman: Золотое кольцо скачать торрент в хорошем качестве
    Kingsman: Золотое кольцо смотреть онлайн бесплатно в хорошем качестве


    Вы не можете начинать темы
    Вы не можете отвечать на сообщения
    Вы не можете редактировать свои сообщения
    Вы не можете удалять свои сообщения
    Вы не можете голосовать в опросах
    Вы не можете прикреплять файлы к сообщениям
    Вы можете скачивать файлы