Ссылка на приватное зеркало всего за 1$. Внимание количество ограничено!!!

OK

1+1

iTunes

мы

OK

1

WEB-DLRip

Джокер

Пифагор

Ведьмак / The Witcher сериал

Лицензия

ПШазам

ОК

Оно 2

iTunes

30
pack

Вам бонус

ВАЖНО

!!Акция!!

Alien_RageХит недели

RePack

Resident Evil 21

ИГРА 18+

pack

RePack

jed

!!Акция!!

Alien_Rage

RePack

fifa19

RePack

Assassins Creed: Odyssey

RePack

NEED FOR SPEED™ PAYBACK

4 сезон

9 сезон

Бесстыжие 9 сезон

Все сериалы

все сериалы на PB.wtf

RePack

FAR CRY 5
  

Восхождение пехотинца 3 / Rise of the Footsoldier 3 (Закари Адлер) [2017, криминал, BDRip 720p] MVO ["Синема УС"] pb.wtf

Восхождение пехотинца 3 через торрент pb.wtf

Размер: 4.41 GB | Добавлен: 2 года назад | Торрент скачан:37 раз
Скачать  

19-01-2018 15:55 Восхождение пехотинца 3 Скачать торрент  

Восхождение пехотинца 3 / Rise of the Footsoldier 3Год выпуска: 2017
Страна: Великобритания
Жанр: криминал
Продолжительность: 01:40:31
Перевод: Любительский (многоголосый) ["Синема УС"]
Субтитры: отсутствуют

Режиссер: Закари Адлер

rating

В ролях:

Крэйг Фэйрбрасс, Терри Стоун, Роланд Манукян, Джэми Формен, Джош Майерс, Эдди Веббер, Йен Вирго, Энди Беквит, Шон Райдер, Лаура МакМонэйгл

Описание:

Знаменитый гангстер, Пэт Тэйт, проходит путь к вершине преступного мира Эссекса. События разворачиваются до произошедшего в первой части фильма "Восхождение Пехотинца".

Качество: BDRip 720p
Формат: MKV
Видео кодек: H.264
Аудио кодек: AC3

Видео: 5836 Kбит/с, 1280x688
Аудио#1: Русский, (AC3, 2 ch, 448 Кбит/с)

скриншот  скриншот  скриншот  

Общее
Уникальный идентификатор : 227986718734184822859248679230708909327 (0xAB84A5151AB1D501AF3972BD43B8050F)
Полное имя : D:\Rise.Of.The.Footsoldier.3.2017.P.BDRip.72Op_KOSHARA.mkv
Формат : Matroska
Версия формата : Version 2
Размер файла : 4,41 Гбайт
Продолжительность : 1 ч. 40 м.
Режим общего битрейта : Переменный
Общий поток : 6286 Кбит/сек
Дата кодирования : UTC 2018-01-18 22:54:22
Программа кодирования : mkvmerge v8.3.0 ('Over the Horizon') 64bit
Библиотека кодирования : libebml v1.3.1 + libmatroska v1.4.2

Видео
Идентификатор : 1
Формат : AVC
Формат/Информация : Advanced Video Codec
Профиль формата : High@L4.1
Параметр CABAC формата : Да
Параметр ReFrames формата : 9 кадров
Идентификатор кодека : V_MPEG4/ISO/AVC
Продолжительность : 1 ч. 40 м.
Вид битрейта : Переменный
Битрейт : 5836 Кбит/сек
Максимальный битрейт : 6400 Кбит/сек
Ширина : 1280 пикселей
Высота : 688 пикселей
Соотношение сторон : 1,85:1
Режим частоты кадров : Постоянный
Частота кадров : 23,976 (24000/1001) кадра/сек
Стандарт вещания : Component
Цветовое пространство : YUV
Субдискретизация насыщенности : 4:2:0
Битовая глубина : 8 бит
Тип развёртки : Прогрессивная
Бит/(Пиксели*Кадры) : 0.271
Размер потока : 4,01 Гбайт (91%)
Default : Да
Forced : Нет
Цветовой диапазон : Limited
Основные цвета : BT.709
Характеристики трансфера : BT.709
Коэффициенты матрицы : BT.709

Аудио
Идентификатор : 2
Формат : AC-3
Формат/Информация : Audio Coding 3
Расширение режима : CM (complete main)
Параметр Endianness формата : Big
Идентификатор кодека : A_AC3
Продолжительность : 1 ч. 40 м.
Вид битрейта : Постоянный
Битрейт : 448 Кбит/сек
Каналы : 2 канала
Расположение каналов : Front: L R
Частота : 48,0 КГц
Частота кадров : 31,250 кадров/сек (1536 spf)
Метод сжатия : С потерями
Размер потока : 322 Мбайт (7%)
Default : Да
Forced : Нет

pb.wtf



Скачать Восхождение пехотинца 3 через торрент http://i102.fastpic.ru/big/2018/0119/44/b94d59bfae110f3fd073bfe2b2e10244.jpg Скачать фильм Восхождение пехотинца 3 через торрент бесплантно в хорошем качестве Описание: Знаменитый гангстер, Пэт Тэйт, проходит путь к вершине преступного мира Эссекса. События разворачиваются до произошедшего в ... 9.7 10 3
Торрент: Зарегистрирован [2018-01-19 15:55] · скачан: 37 раз
Статус: # сомнительно
Размер: 4.41 GB
Как cкачать? Как скачать Восхождение пехотинца 3 через торрент | qTorrent

% Раздел Тема Автор DL S | L
Фильмы (Blu-ray, BD-Remux, HDDVD) [ 18.21 GB ] Восхождение пехотинца 3 / Rise of the Footsoldier 3 [2017 BD Remux 1080р] AVO [А.Карповский] bober100 Скачать
1 | 0
T Фильмы (мультфильмы) cо спонсором показа (Новинки AVI/MKV) [ 1.46 GB ] Восхождение пехотинца 3 / Rise of the Footsoldier 3 [2017 HDRip] MVO ["Синема УС"] bober100 Скачать
1 | 0

28-11-2019 20:33  

Отключить всю рекламу на сайте

    Дорогой пользователь! Огромная просьба, поблагодарите релизера, оцените раздачу и оставьте свои комментарий, если Вы скачали Восхождение пехотинца 3 через торрент бесплатно! Внесите свою лепту в развитие PiratBit!
    Комментировать посты могут только пользователи прошедшие не сложную регистрацию
    Показать сообщения:    

    Восхождение пехотинца 3 через торрент
    Скачать бесплатно Восхождение пехотинца 3
    Восхождение пехотинца 3 скачать торрент
    Восхождение пехотинца 3 смотреть онлайн
    Cкачать фильм Восхождение пехотинца 3 бесплатно
    Восхождение пехотинца 3 скачать торрент в хорошем качестве
    Восхождение пехотинца 3 смотреть онлайн бесплатно в хорошем качестве


    Вы не можете начинать темы
    Вы не можете отвечать на сообщения
    Вы не можете редактировать свои сообщения
    Вы не можете удалять свои сообщения
    Вы не можете голосовать в опросах
    Вы не можете прикреплять файлы к сообщениям
    Вы можете скачивать файлы