>

7.4

iTunes

7.4

2 сезон

9.4

1 сезон

1

7.4

2 сезон

7.2

iTunes

6.0

MVO

13

6.1

iTunes

8.3

Пиратка

30

ULTIMATE

pack

9.9

Лицензия

ВАЖНО

ИГРА 18+

pack

7.3

RePack

MK11

7.7

RePack

jed

7.8

RePack

fifa19

8.5

RePack

RDR2

RePack

NEED FOR SPEED™ PAYBACK

1 сезон

9 сезон

Бесстыжие 9 сезон

Все сериалы

все сериалы на PB.wtf

RePack

FAR CRY 5

Anonymous, доброй ночи, мы катастрофически не успеваем собрать деньги на оплату серверов, помогите нам пожалуйста 5,10,15р., для нас важна любая помощь . В качестве благодарности мы отключим Вам всю рекламу на сайте (укажите свой ник в строку Ваше имя)!

×
  
Magnet ссылка

Рождественские каникулы 91 / Vacanze di Natale '91 (Энрико Олдоини) [1991 г., Комедия, DVDRip-AVC, Авторский (одноголосый)] от ExKinoRay pb.wtf

Рождественские каникулы 91 через торрент pb.wtf

Размер: 1.5 GB | Добавлен: 3 года 11 мес. назад | Торрент скачан:9 раз
Смотреть онлайн Рождественские каникулы 91 | Скачать    Ребята, помогите собрать деньги на оплату серверов!!!

19-01-2018 16:05 Рождественские каникулы 91 Скачать торрент  

Рождественские каникулы 91 / Vacanze di Natale '91
Год выпуска: 1991
Страна: Италия
Жанр: Комедия
Продолжительность: 01:51:27
Перевод: Авторский (одноголосый)

Режиссер: Энрико Олдоини

Премьера в мире: 20 декабря 1991

rating

В ролях: Орнелла Мути, Кристиан Де Сика, Массимо Болди, Нино Фрассика, Эцио Греджо, Альберто Сорди, Надя Ринальди, Франческо Бениньо, Конни Нильсен, Клаудио Гора

Описание: Снова зима и снова Сент-Мориц ставит курьёзные вопросы:Сколько женщин нужно «голубому», если он «срывается с цепи». Занимаются ли призраки любовью или они как ракушки? Нужно ли мужчине в одиночестве надевать презерватив? И другие…

Доп. информация: Авторский одноголосый (А.Мудров)
Русская дорожка - VHS.
00:58:33-00:59:54 и 01:43:29-01:44:14 отсутствует перевод (моменты вырезанные на VHS)
За предоставленный итальянский DVD спасибо darkman70

Качество: DVDRip-AVC
Формат: MKV
Видео кодек: MPEG4
Аудио кодек: AC3
Видео: MPEG-4 AVC, 1600 Кбит/с, 720x436@1024x436, 25 кадров/сек
Аудио#1: Русский (AC3, 2 ch, 128 Кбит/с, 48 КГц)
Аудио#2: Итальянский (AC3, 2 ch, 192 Кбит/с, 48 КГц)
Релиз от:




raw [info]: 720x436p 64:45 @ 25/1 fps (cfr)
x264 [info]: using SAR=64/45
x264 [info]: using cpu capabilities: MMX2 SSE2Fast LZCNT
x264 [info]: profile High, level 4.1
x264 [info]: frame I:1053 Avg QP:14.36 size: 42584
x264 [info]: frame P:36020 Avg QP:16.94 size: 17766
x264 [info]: frame B:130102 Avg QP:18.88 size: 5013
x264 [info]: consecutive B-frames: 1.5% 2.1% 11.8% 15.7% 12.8% 52.6% 2.5% 0.2% 0.3% 0.0% 0.1% 0.2% 0.0% 0.0% 0.0% 0.0% 0.0%
-----
Общее
Уникальный идентификатор : 182746339358216850016527996354295430398 (0x897BAA2B123948CC991FE37DB1FAFCFE)
Полное имя : D:\ExKinoRay\Vacanze.di.Natale.1991.DVDRip-AVC.ExKinoRay.mkv
Формат : Matroska
Версия формата : Version 2
Размер файла : 1,50 Гбайт
Продолжительность : 1 ч. 51 м.
Общий поток : 1921 Кбит/сек
Дата кодирования : UTC 2018-01-19 12:24:59
Программа кодирования : mkvmerge v7.8.0 ('River Man') 32bit built on Apr 3 2015 12:11:22
Библиотека кодирования : libebml v1.3.1 + libmatroska v1.4.2

Видео
Идентификатор : 1
Формат : AVC
Формат/Информация : Advanced Video Codec
Профиль формата : High@L4.1
Параметр CABAC формата : Да
Параметр ReFrames формата : 14 кадров
Идентификатор кодека : V_MPEG4/ISO/AVC
Продолжительность : 1 ч. 51 м.
Битрейт : 1600 Кбит/сек
Ширина : 720 пикселей
Высота : 436 пикселей
Соотношение сторон : 2,35:1
Режим частоты кадров : Постоянный
Частота кадров : 25,000 кадров/сек
Цветовое пространство : YUV
Субдискретизация насыщенности : 4:2:0
Битовая глубина : 8 бит
Тип развёртки : Прогрессивная
Бит/(Пиксели*Кадры) : 0.204
Размер потока : 1,22 Гбайт (81%)
Библиотека кодирования : x264 core 148 r2638 7599210
Настройки программы : cabac=1 / ref=14 / deblock=1:-2:-2 / analyse=0x3:0x133 / me=umh / subme=10 / psy=1 / psy_rd=1.05:0.15 /

mixed_ref=1 / me_range=32 / chroma_me=1 / trellis=2 / 8x8dct=1 / cqm=0 / deadzone=21,11 / fast_pskip=0 / chroma_qp_offset=-3 / threads=4 /

lookahead_threads=1 / sliced_threads=0 / nr=0 / decimate=0 / interlaced=0 / bluray_compat=0 / constrained_intra=0 / bframes=16 / b_pyramid=2 /

b_adapt=2 / b_bias=0 / direct=3 / weightb=1 / open_gop=0 / weightp=2 / keyint=250 / keyint_min=25 / scenecut=40 / intra_refresh=0 / rc=2pass /

mbtree=0 / bitrate=1600 / ratetol=1.0 / qcomp=0.60 / qpmin=0 / qpmax=69 / qpstep=4 / cplxblur=20.0 / qblur=0.5 / ip_ratio=1.40 / pb_ratio=1.30 /

aq=1:1.00
Язык : English
Default : Да
Forced : Нет
Цветовой диапазон : Limited
Основные цвета : BT.601 NTSC
Характеристики трансфера : BT.601
Коэффициенты матрицы : BT.601

Аудио #1
Идентификатор : 2
Формат : AC-3
Формат/Информация : Audio Coding 3
Расширение режима : CM (complete main)
Параметр Endianness формата : Big
Идентификатор кодека : A_AC3
Продолжительность : 1 ч. 51 м.
Вид битрейта : Постоянный
Битрейт : 128 Кбит/сек
Каналы : 2 канала
Расположение каналов : Front: L R
Частота : 48,0 КГц
Частота кадров : 31,250 кадров/сек (1536 spf)
Метод сжатия : С потерями
Задержка видео : 20 мс.
Размер потока : 102 Мбайт (7%)
Заголовок : Мудров
Язык : Russian
Default : Да
Forced : Нет

Аудио #2
Идентификатор : 3
Формат : AC-3
Формат/Информация : Audio Coding 3
Расширение режима : CM (complete main)
Параметр Endianness формата : Big
Идентификатор кодека : A_AC3
Продолжительность : 1 ч. 51 м.
Вид битрейта : Постоянный
Битрейт : 192 Кбит/сек
Каналы : 2 канала
Расположение каналов : Front: L R
Частота : 48,0 КГц
Частота кадров : 31,250 кадров/сек (1536 spf)
Метод сжатия : С потерями
Размер потока : 153 Мбайт (10%)
Язык : Italian
Default : Нет
Forced : Нет

pb.wtf



Скачать Рождественские каникулы 91 через торрент http://c.radikal.ru/c17/1801/ef/899b61763962.jpg Скачать, смотреть онлайн Рождественские каникулы 91 бесплантно в хорошем качестве Описание: Снова зима и снова Сент-Мориц ставит курьёзные вопросы:Сколько женщин нужно «голубому», если он «срывается с цепи». Занимаются ли ... 10 10 2
Info! Золотая раздача, скачанное не засчитывается.
Торрент: Зарегистрирован [2018-01-19 16:05] · скачан: 9 раз
Статус: √ проверено
Размер: 1.5 GB
Как cкачать? Как скачать Рождественские каникулы 91 через торрент | UTorrent



Последний раз редактировалось: dumbia (2018-01-19 16:56), всего редактировалось 1 раз

28-11-2019 20:33  

Отключить всю рекламу на сайте

19-01-2018 16:33 Рождественские каникулы 91 Скачать торрент  

смотрел в детстве его на VHS. спасибо!, попробую заново пересмотретьpb.wtf



19-01-2018 17:30 Рождественские каникулы 91 Скачать торрент  

Топик был перенесен из форума Оформление раздач (Кино, Видео и ТВ) в форум Фильмы с авторской озвучкой


schultzpb.wtf



    Дорогой пользователь! Огромная просьба, поблагодарите релизера, оцените раздачу и оставьте свои комментарий, если Вы скачали Рождественские каникулы 91 через торрент бесплатно!
    Комментировать посты могут только пользователи прошедшие не сложную регистрацию
    Показать сообщения:    

    Рождественские каникулы 91 через торрент
    Скачать бесплатно Рождественские каникулы 91
    Рождественские каникулы 91 скачать торрент
    Рождественские каникулы 91 смотреть онлайн
    Cкачать фильм Рождественские каникулы 91 бесплатно
    Рождественские каникулы 91 скачать торрент в хорошем качестве
    Рождественские каникулы 91 смотреть онлайн бесплатно в хорошем качестве


    Вы не можете начинать темы
    Вы не можете отвечать на сообщения
    Вы не можете редактировать свои сообщения
    Вы не можете удалять свои сообщения
    Вы не можете голосовать в опросах
    Вы не можете прикреплять файлы к сообщениям
    Вы можете скачивать файлы