Ссылка на приватное зеркало всего за 1$. Внимание количество ограничено!!!

iTunes

iTunes

iTunes

1

iTunes

iTunes

iTunes

WEBRip

iTunes

30
pack

$ от Little Big

ВАЖНО

!!Акция!!

Alien_RageХит недели

RePack

Resident Evil 21

ИГРА 18+

pack

RePack

jed

!!Акция!!

Alien_Rage

RePack

fifa19

RePack

Assassins Creed: Odyssey

RePack

NEED FOR SPEED™ PAYBACK

4 сезон

9 сезон

Бесстыжие 9 сезон

Все сериалы

все сериалы на PB.wtf

RePack

FAR CRY 5
  

Неукрощенные / La región salvaje (Амат Эскаланте) [2016, ужасы, фантастика, триллер, драма, BDRip 720p] MVO [КОЛОБОК] pb.wtf

Неукрощенные через торрент pb.wtf

Размер: 4.08 GB | Добавлен: 2 года 6 мес. назад | Торрент скачан:77 раз
Скачать  

19-01-2018 16:56 Неукрощенные Скачать торрент  

Неукрощенные / La región salvajeГод выпуска: 2016
Страна: Мексика, Дания, Франция, Германия, Норвегия, Швейцария
Жанр: ужасы, фантастика, триллер, драма
Продолжительность: 01:39:21
Перевод: Любительский (многоголосый) [КОЛОБОК]
Субтитры: отсутствуют

Режиссер: Амат Эскаланте

rating

В ролях:

Кенни Джонстон, Симона Бусио, Фернандо Корона, Иисус Меза, Рут Рамос, Иден Вильявиченсио

Описание:

Вероника отправляется в путь, чтобы найти место падения метеорита, которое изменило ландшафт местности. Подобно небесному телу, она сама изменит жизнь молодой пары с двумя детьми, которые всеми силами пытаются преодолеть выпавшие на их долю трудности.

Качество: BDRip 720p
Формат: MKV
Видео кодек: H.264
Аудио кодек: AC3

Видео: 5423 Кбит/с, 1200x720
Аудио#1: Русский, (AC3, 2 ch, 448 Кбит/с)

скриншот  скриншот  скриншот  

Общее
Уникальный идентификатор : 215476992316969656315342860314963227261 (0xA21B5BF36A5AFF939555F3220C02327D)
Полное имя : D:\The.Untamed.2016.P.BDRip.72Op_KOSHARA.mkv
Формат : Matroska
Версия формата : Version 2
Размер файла : 4,08 Гбайт
Продолжительность : 1 ч. 39 м.
Режим общего битрейта : Переменный
Общий поток : 5873 Кбит/сек
Дата кодирования : UTC 2018-01-18 17:34:10
Программа кодирования : mkvmerge v8.3.0 ('Over the Horizon') 64bit
Библиотека кодирования : libebml v1.3.1 + libmatroska v1.4.2

Видео
Идентификатор : 1
Формат : AVC
Формат/Информация : Advanced Video Codec
Профиль формата : High@L4.1
Параметр CABAC формата : Да
Параметр ReFrames формата : 9 кадров
Идентификатор кодека : V_MPEG4/ISO/AVC
Продолжительность : 1 ч. 39 м.
Вид битрейта : Переменный
Битрейт : 5423 Кбит/сек
Максимальный битрейт : 6200 Кбит/сек
Ширина : 1200 пикселей
Высота : 720 пикселей
Соотношение сторон : 5:3
Режим частоты кадров : Постоянный
Частота кадров : 23,976 (24000/1001) кадра/сек
Стандарт вещания : Component
Цветовое пространство : YUV
Субдискретизация насыщенности : 4:2:0
Битовая глубина : 8 бит
Тип развёртки : Прогрессивная
Бит/(Пиксели*Кадры) : 0.262
Размер потока : 3,76 Гбайт (92%)
Default : Да
Forced : Нет
Цветовой диапазон : Limited
Основные цвета : BT.709
Характеристики трансфера : BT.709
Коэффициенты матрицы : BT.709

Аудио
Идентификатор : 2
Формат : AC-3
Формат/Информация : Audio Coding 3
Расширение режима : CM (complete main)
Параметр Endianness формата : Big
Идентификатор кодека : A_AC3
Продолжительность : 1 ч. 39 м.
Вид битрейта : Постоянный
Битрейт : 448 Кбит/сек
Каналы : 2 канала
Расположение каналов : Front: L R
Частота : 48,0 КГц
Частота кадров : 31,250 кадров/сек (1536 spf)
Метод сжатия : С потерями
Размер потока : 318 Мбайт (8%)
Default : Да
Forced : Нет

pb.wtf



Скачать Неукрощенные через торрент http://img12.lostpic.net/2018/01/19/56522f1593e9c301aadaaf73ba95a09c.jpg Скачать фильм Неукрощенные через торрент бесплантно в хорошем качестве Описание: Вероника отправляется в путь, чтобы найти место падения метеорита, которое изменило ландшафт местности. Подобно небесному телу, ... 8.2 10 5
Торрент: Зарегистрирован [2018-01-19 16:56] · скачан: 77 раз
Статус: # сомнительно
Размер: 4.08 GB
Как cкачать? Как скачать Неукрощенные через торрент | qTorrent

% Раздел Тема Автор DL S | L
T Фильмы (мультфильмы) cо спонсором показа (Новинки AVI/MKV) [ 1.46 GB ] Неукрощенные / La región salvaje [2016 HDRip] MVO [КОЛОБОК] bober100 Скачать
1 | 0

28-11-2019 20:33  

Отключить всю рекламу на сайте

20-01-2018 13:57 Неукрощенные Скачать торрент  

какой-то озабоченный и замороченный фильмец.в оконцовке смотрел на перемотке.дичь какая-то.pb.wtf



    Дорогой пользователь! Огромная просьба, поблагодарите релизера, оцените раздачу и оставьте свои комментарий, если Вы скачали Неукрощенные через торрент бесплатно! Внесите свою лепту в развитие PiratBit!
    Комментировать посты могут только пользователи прошедшие не сложную регистрацию
    Показать сообщения:    

    Неукрощенные через торрент
    Скачать бесплатно Неукрощенные
    Неукрощенные скачать торрент
    Неукрощенные смотреть онлайн
    Cкачать фильм Неукрощенные бесплатно
    Неукрощенные скачать торрент в хорошем качестве
    Неукрощенные смотреть онлайн бесплатно в хорошем качестве


    Вы не можете начинать темы
    Вы не можете отвечать на сообщения
    Вы не можете редактировать свои сообщения
    Вы не можете удалять свои сообщения
    Вы не можете голосовать в опросах
    Вы не можете прикреплять файлы к сообщениям
    Вы можете скачивать файлы