Всегда рабочее зеркало просто перед .vidak.icu напиши любое слово или цифру, Пример http://72q.vidak.icu

>

7.4

iTunes

7.4

2 сезон

6.6

iTunes

1

7.4

2 сезон

7.2

iTunes

6.0

MVO

13

6.1

iTunes

8.3

Пиратка

30

ULTIMATE

pack

9.9

Лицензия

ВАЖНО

ИГРА 18+

pack

7.3

RePack

MK11

7.7

RePack

jed

7.8

RePack

fifa19

8.5

RePack

RDR2

RePack

NEED FOR SPEED™ PAYBACK

1 сезон

9 сезон

Бесстыжие 9 сезон

Все сериалы

все сериалы на PB.wtf

RePack

FAR CRY 5

Anonymous, добрый вечер, мы катастрофически не успеваем собрать деньги на оплату серверов, помогите нам пожалуйста 5,10,15р., для нас важна любая помощь . В качестве благодарности мы отключим Вам всю рекламу на сайте (укажите свой ник в строку Ваше имя)!

×
  
Magnet ссылка

Восхождение пехотинца. Часть II / Rise of the Footsoldier Part II (Риччи Харнетт) [2015, криминал, BDRip] AVO [А.Карповский] pb.wtf

Восхождение пехотинца. Часть II через торрент pb.wtf

Размер: 1.46 GB | Добавлен: 4 года назад | Торрент скачан:37 раз
Смотреть онлайн Восхождение пехотинца. Часть II | Скачать    Ребята, помогите собрать деньги на оплату серверов!!!

19-01-2018 19:01 Восхождение пехотинца. Часть II Скачать торрент  

Восхождение пехотинца. Часть II / Rise of the Footsoldier Part IIГод выпуска: 2015
Страна: Великобритания
Жанр: криминал
Продолжительность: 01:51:06
Перевод: Авторский (одноголосый) | Антон Карповский
Субтитры: отсутствуют

Режиссер: Риччи Харнетт

rating

В ролях:

Чарли Хитон, Стивен Беркофф, Люк Мэбли, Крэйг Фэйрбрасс, Риччи Харнетт, Терри Стоун, Лобна Фьютерс, Райан Олива, Слейн Келли

Описание:

Главный герой - Карлтон Лич, - бывший футбольный фанат, боец из группы поддержки ФК "Вест Хэм", который ещё в первом фильме успел стать заметной фигурой в криминальном мире Эссекса. В конце первого фильма Карл Лич потерял троих своих друзей, которых настигла тяжелая насильственная смерть. Второй фильм начинается с предварения чёткой темы - этот фильм о том, кто выжил. Зрителю раскрывается новая жизнь Карлтона, где больше жестокости, наркотиков, грязного секса, отвязных поступков и конечно, той специфической работы, где никак не обойтись без жёстких по жизни бойцов

Качество: BDRip | исходник Rise of the Footsoldier Part II 2015 1080p Blu-ray AVC DTS-HD MA 5.1
Формат: AVI

Видео: 720x304 (2.35:1), 24.000 fps, XviD build 67 ~1 421 kbps avg
Аудио: 48.0 kHz, AC3 Dolby Digital, 3/2 (L,C,R,l,r) + LFE ch, ~448 kbps

скриншот   скриншот   скриншот  

General
Полное имя : Rise.of.the.Footsoldier.Part.II.2015.BDRip-ylnian.avi
Формат : AVI
Формат/Информация : Audio Video Interleave
Размер файла : 1,46 Гбайт
Продолжительность : 1 ч. 51 м.
Общий поток : 1878 Кбит/сек
Программа кодирования : VirtualDubMod 1.5.10.2 (build 2540/release)
Библиотека кодирования : VirtualDubMod build 2540/release

Видео
Идентификатор : 0
Формат : MPEG-4 Visual
Профиль формата : Advanced Simple@L5
Параметр BVOP формата : 1
Параметр QPel формата : Нет
Параметр GMC формата : Без точки перехода
Параметр матрицы формата : Default (MPEG)
Идентификатор кодека : XVID
Идентификатор кодека/Подсказка : XviD
Продолжительность : 1 ч. 51 м.
Битрейт : 1421 Кбит/сек
Ширина : 720 пикселей
Высота : 304 пикселя
Соотношение сторон : 2,35:1
Частота кадров : 24,000 кадра/сек
Цветовое пространство : YUV
Субдискретизация насыщенности : 4:2:0
Битовая глубина : 8 бит
Тип развёртки : Прогрессивная
Метод сжатия : С потерями
Бит/(Пиксели*Кадры) : 0.270
Размер потока : 1,10 Гбайт (76%)
Библиотека кодирования : XviD 67

Аудио
Идентификатор : 1
Формат : AC-3
Формат/Информация : Audio Coding 3
Расширение режима : CM (complete main)
Параметр Endianness формата : Big
Идентификатор кодека : 2000
Продолжительность : 1 ч. 51 м.
Вид битрейта : Постоянный
Битрейт : 448 Кбит/сек
Каналы : 6 каналов
Расположение каналов : Front: L C R, Side: L R, LFE
Частота : 48,0 КГц
Частота кадров : 31,250 кадров/сек (1536 spf)
Метод сжатия : С потерями
Размер потока : 356 Мбайт (24%)
Выравнивание : Разделение по промежуткам
Продолжительность промежутка : 42 мс. (1,00 видеокадр)
Время предзагрузки промежутка : 500 мс.
Заголовок : RUS - AVO - Karpovsky

pb.wtf



Скачать Восхождение пехотинца. Часть II через торрент http://img11.lostpic.net/2017/03/16/1ca9d49294040b8bff957e7404a98935.png Скачать, смотреть онлайн Восхождение пехотинца. Часть II бесплантно в хорошем качестве Описание: Главный герой - Карлтон Лич, - бывший футбольный фанат, боец из группы поддержки ФК "Вест Хэм", который ещё в первом фильме успел ... 10 10 3
Торрент: Зарегистрирован [2018-01-19 19:01] · скачан: 37 раз
Статус: √ проверено
Размер: 1.46 GB
Как cкачать? Как скачать Восхождение пехотинца. Часть II через торрент | UTorrent

% Раздел Тема Автор DL S | L
Фильмы (Blu-ray, BD-Remux, HDDVD) [ 20.47 GB ] Восхождение Пехотинца. Часть 2 / Rise of the Footsoldier Part II [2015 BDRemux 1080p] [AVO] killermax2013 Скачать
1 | 0

28-11-2019 20:33  

Отключить всю рекламу на сайте

    Дорогой пользователь! Огромная просьба, поблагодарите релизера, оцените раздачу и оставьте свои комментарий, если Вы скачали Восхождение пехотинца. Часть II через торрент бесплатно!
    Комментировать посты могут только пользователи прошедшие не сложную регистрацию
    Показать сообщения:    

    Восхождение пехотинца. Часть II через торрент
    Скачать бесплатно Восхождение пехотинца. Часть II
    Восхождение пехотинца. Часть II скачать торрент
    Восхождение пехотинца. Часть II смотреть онлайн
    Cкачать фильм Восхождение пехотинца. Часть II бесплатно
    Восхождение пехотинца. Часть II скачать торрент в хорошем качестве
    Восхождение пехотинца. Часть II смотреть онлайн бесплатно в хорошем качестве


    Вы не можете начинать темы
    Вы не можете отвечать на сообщения
    Вы не можете редактировать свои сообщения
    Вы не можете удалять свои сообщения
    Вы не можете голосовать в опросах
    Вы не можете прикреплять файлы к сообщениям
    Вы можете скачивать файлы