Ссылка на приватное зеркало нашего сайта всего за 1$. Внимание количество ограничено!!!

2 сезон

iTunes

1 сезон

1

2 сезон

2 сезон

iTunes

1 сезон

RePack

30

Ultimate

ВАЖНО

ИГРА 18+

pack

RePack

MK11
pack

Забери бонус

RePack

jed

!!Акция!!

Alien_Rage

RePack

fifa19

RePack

Assassins Creed: Odyssey

RePack

NEED FOR SPEED™ PAYBACK

4 сезон

9 сезон

Бесстыжие 9 сезон

Все сериалы

все сериалы на PB.wtf

RePack

FAR CRY 5
  

Британия / Britannia / 1 сезон / 1-9 серия из 9 (Шери Фоксон, Кристоф Шреве, Люк Уотсон) [2018, Драма, фэнтези, WEB-DL 1080p] [MVO] (AlexFilm) pb.wtf

Британия через торрент pb.wtf

Размер: 33.89 GB | Добавлен: 2 года 9 мес. назад | Торрент скачан:74 раза
Скачать  

19-01-2018 21:15 Британия Скачать торрент  

Британия / Britannia Год выпуска: 2018
Страна: США
Жанр: драма, фэнтези
Продолжительность: ~01:10:00 серия
Озвучание: Профессиональное (многоголосое закадровое) (AlexFilm)
Субтитры: нет

Создатель сериала: Пол Эбботт
Режиссеры: Шери Фоксон, Кристоф Шреве, Люк Уотсон

В ролях: Дэвид Моррисси, Келли Райлли, Николай Ли Каас, Лиана Корнелл, Гершвин Эсташ мл., Макензи Крук...

Описание: События сериала происходят в начале новой эры, когда Британия была населена очень воинственными кельтскими племенами, которые были не готовы перейти под управление иноземцев, пришедших с далекого юга. Во время римского завоевания Британии две враждующие кельтские воительницы — Керра и Антедия — вынуждены объединить силы, чтобы дать отпор римским легионам под предводительством Авла Плавтия.

Релиз:

Перевод: Мисс Джексон, Алиса Галланова и Александр Лазарев
Монтаж и сведение звука: Михаил Шорыгин, Михаил Суслов
Роли озвучивали:
Маргарита Корш
Екатерина Муравицкая
Владимир Курдов
Кирилл Патрино
Константин Федосеев
Михаил Суслов



Качество: WEB-DL 1080p
Формат: MKV
Видео: H.264, 1920х1080 (16:9), 25 fps, MPEG-4 AVC 10.4 Mbps, 0.201 bit/pixel
Аудио Rus: 48 kHz, AC3 Dolby Digital, 3/2 (L,C,R,l,r) + LFE ch, ~384.00 kbps
Аудио Eng: 48 kHz, AC3 Dolby Digital, 3/2 (L,C,R,l,r) + LFE ch, ~384.00 kbps
Субтитры: нет
Format : Matroska
Format version : Version 4 / Version 2
File size : 5.44 GiB
Duration : 1 h 9 min
Overall bit rate mode : Variable
Overall bit rate : 11.2 Mb/s
Encoded date : UTC 2018-01-29 15:38:41
Writing application : mkvmerge v6.1.0 ('Old Devil') built on Mar 4 2013 09:10:42
Writing library : libebml v1.3.0 + libmatroska v1.4.0

Video
ID : 1
Format : AVC
Format/Info : Advanced Video Codec
Format profile : High@L4
Format settings : CABAC / 4 Ref Frames
Format settings, CABAC : Yes
Format settings, ReFrames : 4 frames
Codec ID : V_MPEG4/ISO/AVC
Duration : 1 h 9 min
Bit rate mode : Variable
Bit rate : 10.2 Mb/s
Maximum bit rate : 15.0 Mb/s
Width : 1 920 pixels
Height : 1 080 pixels
Display aspect ratio : 16:9
Frame rate mode : Constant
Frame rate : 25.000 FPS
Color space : YUV
Chroma subsampling : 4:2:0
Bit depth : 8 bits
Scan type : Progressive
Bits/(Pixel*Frame) : 0.197
Stream size : 4.96 GiB (91%)
Default : Yes
Forced : No
Color range : Limited
Color primaries : BT.709
Transfer characteristics : BT.709
Matrix coefficients : BT.709

Audio #1
ID : 2
Format : AC-3
Format/Info : Audio Coding 3
Codec ID : A_AC3
Duration : 1 h 9 min
Bit rate mode : Constant
Bit rate : 384 kb/s
Channel(s) : 6 channels
Channel positions : Front: L C R, Side: L R, LFE
Sampling rate : 48.0 kHz
Frame rate : 31.250 FPS (1536 SPF)
Bit depth : 16 bits
Compression mode : Lossy
Stream size : 191 MiB (3%)
Title : DD 5.1 AlexFilm
Language : Russian
Service kind : Complete Main
Default : Yes
Forced : No

Audio #2
ID : 3
Format : AC-3
Format/Info : Audio Coding 3
Codec ID : A_AC3
Duration : 1 h 9 min
Bit rate mode : Constant
Bit rate : 384 kb/s
Channel(s) : 6 channels
Channel positions : Front: L C R, Side: L R, LFE
Sampling rate : 48.0 kHz
Frame rate : 31.250 FPS (1536 SPF)
Bit depth : 16 bits
Compression mode : Lossy
Stream size : 191 MiB (3%)
Service kind : Complete Main
Default : No
Forced : No
Внимание! Раздача ведётся путём добавления новых серий; при каждом добавлении создаётся новый торрент. Чтобы начать докачку новой серии, пользователям необходимо сделать следующее:
(1) остановить скачивание,
(2) удалить старый торрент у себя из клиента (старые серии удалять не надо),
(3) скачать новый торрент и запустить его у себя в клиенте вместо старого, при этом указать клиенту путь в старую папку куда и должно происходить скачивание новых серий.
Ваш клиент при этом должен произвести хеширование (проверку) старой папки (если не производит сам - помогите ему сделать это), и будет докачивать только те серии которых у вас ещё нет. Старые серии при этом не удаляются, а продолжают раздаваться!
Eсли вы уже удалили старые серии, то предотвратить повторную закачку старых серий можно, отжав галочку в соответствующих местах при запуске нового торрента. По возможности, желательно не удалять старые серии как можно дольше чтобы релизёр не столько продолжал раздавать старые серии, а смог сконцентрироваться на новых.
pb.wtf



Скачать Британия через торрент http://i99.fastpic.ru/big/2018/0130/70/c7425f8e224dbe9cea3baccb684b8870.jpg Скачать фильм Британия через торрент бесплантно в хорошем качестве Описание: События сериала происходят в начале новой эры, когда Британия была населена очень воинственными кельтскими племенами, которые ... 8.6 10 18
Info! Золотая раздача, скачанное не засчитывается.
Торрент: Зарегистрирован [2018-02-08 07:56] · скачан: 74 раз
Статус: √ проверено
Размер: 33.89 GB
Как cкачать? Как скачать Британия через торрент | qTorrent

% Раздел Тема Автор DL S | L
Зарубежные сериалы [ 34.45 GB ] Британия / Britannia / Сезон: 1 / Серии: 1-9 из 9 [2017 WEBRip 1080p] [MVO] killermax2013 Скачать
1 | 0
Зарубежные сериалы [ 6.19 GB ] Британия / Britannia / Сезон: 1 / Серии: 1-9 из 9 [2018 WEB-DLRip] MVO [SDI Media] bober100 Скачать
7 | 0
Зарубежные сериалы [ 38.81 GB ] Британия / Britannia / Сезон: 1 / Серии: 1-9 из 9 [2018 WEB-DL 1080p] 4xMVO [Jaskier AlexFilm AMS NewStudio] bober100 Скачать
1 | 0
Зарубежные сериалы [ 7.03 GB ] Британия / Britannia / Сезон: 1 / Серии: 1-9 из 9 [2017 HDRip] [MVO] killermax2013 Скачать
1 | 0
Зарубежные сериалы [ 32.81 GB ] Британия / Britannia / 1 сезон / 1-9 серия из 9 [2018 BDRip] [1080p] [MVO] killermax2013 Скачать
1 | 0
Зарубежные сериалы [ 13.96 GB ] Британия / Britannia / 1 сезон / 1-9 серия из 9 [2018 WEB-DL 720p] [MVO] killermax2013 Скачать
1 | 0
Зарубежные сериалы [ 12.45 GB ] Британия / Britannia / Сезон: 1 / Серии: 1-9 из 9 [2017 WEB-DL 720p] MVO [Jaskier] bober100 Скачать
1 | 0


Последний раз редактировалось: killermax2013 (2018-02-08 07:56), всего редактировалось 8 раз(а)

28-11-2019 20:33  

Отключить всю рекламу на сайте

19-01-2018 21:50 Британия Скачать торрент  

+2pb.wtf



20-01-2018 18:23 Британия Скачать торрент  

+3pb.wtf



26-01-2018 15:26 Британия Скачать торрент  

Почему нет информации о наличии рекламы в релизе?pb.wtf



30-01-2018 09:22 Британия Скачать торрент  

Торент перезалит! Замена на релиз от AlexFilmpb.wtf



01-02-2018 16:59 Британия Скачать торрент  

+3pb.wtf



02-02-2018 08:09 Британия Скачать торрент  

+4 pb.wtf



05-02-2018 11:31 Британия Скачать торрент  

+5pb.wtf



07-02-2018 12:29 Британия Скачать торрент  

+6-7pb.wtf



08-02-2018 07:57 Британия Скачать торрент  

+8-9pb.wtf



    Дорогой пользователь! Огромная просьба, поблагодарите релизера, оцените раздачу и оставьте свои комментарий, если Вы скачали Британия через торрент бесплатно! Внесите свою лепту в развитие PiratBit!
    Комментировать посты могут только пользователи прошедшие не сложную регистрацию
    Показать сообщения:    

    Британия через торрент
    Скачать бесплатно Британия
    Британия скачать торрент
    Британия смотреть онлайн
    Cкачать фильм Британия бесплатно
    Британия скачать торрент в хорошем качестве
    Британия смотреть онлайн бесплатно в хорошем качестве


    Вы не можете начинать темы
    Вы не можете отвечать на сообщения
    Вы не можете редактировать свои сообщения
    Вы не можете удалять свои сообщения
    Вы не можете голосовать в опросах
    Вы не можете прикреплять файлы к сообщениям
    Вы можете скачивать файлы