Ссылка на приватное зеркало нашего сайта всего за 1$. Внимание количество ограничено!!!

2 сезон

iTunes

1 сезон

1

iTunes

iTunes

iTunes

1 сезон

RePack

30

ИГРА 18+

pack

ВАЖНО

!!Акция!!

Alien_RageХит недели

RePack

MK11
pack

Забери бонус

RePack

jed

!!Акция!!

Alien_Rage

RePack

fifa19

RePack

Assassins Creed: Odyssey

RePack

NEED FOR SPEED™ PAYBACK

4 сезон

9 сезон

Бесстыжие 9 сезон

Все сериалы

все сериалы на PB.wtf

RePack

FAR CRY 5
  

Борг/Макинрой / Borg McEnroe (Янус Мец) [2017, Драма, биография, спорт, BDRip 720p] DUB [iTunes] pb.wtf

Борг через торрент pb.wtf

Размер: 5.19 GB | Добавлен: 2 года 9 мес. назад | Торрент скачан:138 раз
Скачать  

19-01-2018 22:27 Борг Скачать торрент  

Борг/Макинрой / Borg McEnroeГод выпуска: 2017
Страна: Швеция, Дания, Финляндия
Жанр: Драма, биография, спорт
Продолжительность: 01:47:52
Перевод: Дублированный | iTunes
Субтитры: английские

Режиссер: Янус Мец

rating

В ролях:

Сверрир Гуднасон, Шайа ЛаБаф, Стеллан Скарсгард, Тува Новотны, Лео Борг, Маркус Моссберг, Джексон Гэнн, Скотт Артур, Йен Блэкман, Роберт Эммс

Описание:

Добро пожаловать в храм тенниса – центральный корт Уимблдона. Здесь в 1980 году разгорелась битва огня и льда, которая изменила мир современного тенниса навсегда. Это идеальное соперничество между игроком у задней линии и отчаянным сеточником. Берн Борг расчетливый и стойкий, как шведская скала. Он первая ракетка мира четырежды завоевавший кубок Уимблдона и нацелен превзойти свой результат. Джон Макинрой - прямая противоположность Боргу, молодая, восходящая звезда тенниса из Америки, обладающая взрывным характером, впервые вышедший в финал Уимблдона. Как оба достигли столь высоких результатов? В этом поможет разобраться биографический фильм. Битва начинается…

Качество: BDRip 720p
Формат: MKV

Видео: MPEG-4 AVC, 1280x536, 5000 Kbit/s, 24.000 fps
Аудио#1: 48 kHz, AC3, 5.1, 384 Kbps | Дублированный | iTunes | RUS |скриншот  
Аудио#2: 48 kHz, DTS, 5.1, 1510 Kbps | Оригинал | ENG |
скриншот   скриншот   скриншот   скриншот   скриншот  

General
Unique ID : 305166391904644152468478223442309909303 (0xE594E8C29328DB18A8C173CA17F58B37)
Complete name : G:VideoSSDBorg.vs.McEnroe.2017.D.BDRip.720p.ExKinoRay.mkv
Format : Matroska
Format version : Version 4 / Version 2
File size : 5.19 GiB
Duration : 1 h 47 min
Overall bit rate : 6 885 kb/s
Movie name : Borg vs McEnroe 2017 from ExKinoRay
Encoded date : UTC 2018-01-19 21:59:10
Writing application : mkvmerge v20.0.0 ('I Am The Sun') 64-bit
Writing library : libebml v1.3.5 + libmatroska v1.4.8

Video
ID : 1
Format : AVC
Format/Info : Advanced Video Codec
Format profile : High@L4.1
Format settings : CABAC / 12 Ref Frames
Format settings, CABAC : Yes
Format settings, ReFrames : 12 frames
Codec ID : V_MPEG4/ISO/AVC
Duration : 1 h 47 min
Bit rate : 5 000 kb/s
Width : 1 280 pixels
Height : 536 pixels
Display aspect ratio : 2.40:1
Frame rate mode : Constant
Frame rate : 24.000 FPS
Color space : YUV
Chroma subsampling : 4:2:0
Bit depth : 8 bits
Scan type : Progressive
Bits/(Pixel*Frame) : 0.304
Stream size : 3.76 GiB (72%)
Writing library : x264 core 148 r2705 3f5ed56
Encoding settings : cabac=1 / ref=12 / deblock=1:-3:-3 / analyse=0x3:0x133 / me=umh / subme=11 / psy=1 / psy_rd=1.05:0.05 / mixed_ref=1 / me_range=32 / chroma_me=1 / trellis=2 / 8x8dct=1 / cqm=0 / deadzone=21,11 / fast_pskip=0 / chroma_qp_offset=-3 / threads=12 / lookahead_threads=2 / sliced_threads=0 / nr=0 / decimate=0 / interlaced=0 / bluray_compat=0 / constrained_intra=0 / bframes=8 / b_pyramid=2 / b_adapt=2 / b_bias=0 / direct=3 / weightb=1 / open_gop=0 / weightp=2 / keyint=240 / keyint_min=24 / scenecut=40 / intra_refresh=0 / rc_lookahead=50 / rc=2pass / mbtree=0 / bitrate=5000 / ratetol=1.0 / qcomp=0.60 / qpmin=0 / qpmax=69 / qpstep=4 / cplxblur=20.0 / qblur=0.5 / vbv_maxrate=50000 / vbv_bufsize=62500 / nal_hrd=none / filler=0 / ip_ratio=1.40 / pb_ratio=1.30 / aq=3:0.80
Language : English
Default : Yes
Forced : No

Audio #1
ID : 2
Format : AC-3
Format/Info : Audio Coding 3
Codec ID : A_AC3
Duration : 1 h 47 min
Bit rate mode : Constant
Bit rate : 384 kb/s
Channel(s) : 6 channels
Channel positions : Front: L C R, Side: L R, LFE
Sampling rate : 48.0 kHz
Frame rate : 31.250 FPS (1536 SPF)
Bit depth : 16 bits
Compression mode : Lossy
Stream size : 296 MiB (6%)
Title : iTunes
Language : Russian
Service kind : Complete Main
Default : Yes
Forced : No

Audio #2
ID : 3
Format : DTS
Format/Info : Digital Theater Systems
Codec ID : A_DTS
Duration : 1 h 47 min
Bit rate mode : Constant
Bit rate : 1 509 kb/s
Channel(s) : 6 channels
Channel positions : Front: L C R, Side: L R, LFE
Sampling rate : 48.0 kHz
Frame rate : 93.750 FPS (512 SPF)
Bit depth : 24 bits
Compression mode : Lossy
Stream size : 1.14 GiB (22%)
Title : Original
Language : English
Default : No
Forced : No

Text
ID : 4
Format : UTF-8
Codec ID : S_TEXT/UTF8
Codec ID/Info : UTF-8 Plain Text
Duration : 1 h 38 min
Bit rate : 47 b/s
Count of elements : 952
Stream size : 34.0 KiB (0%)
Language : English
Default : No
Forced : No

Menu
00:00:00.000 : en:Chapter 1
00:13:40.500 : en:Chapter 2
00:27:28.750 : en:Chapter 3
00:42:38.375 : en:Chapter 4
00:55:30.458 : en:Chapter 5
01:08:00.666 : en:Chapter 6
01:23:12.375 : en:Chapter 7
01:33:46.625 : en:Chapter 8

pb.wtf



Скачать Борг через торрент http://img12.lostpic.net/2018/01/07/ae1b0983c720938596ef62d31c16669b.jpg Скачать фильм Боргчерез торрент бесплантно в хорошем качестве Описание: Добро пожаловать в храм тенниса – центральный корт Уимблдона. Здесь в 1980 году разгорелась битва огня и льда, которая изменила ... 10 10 2
Торрент: Зарегистрирован [2018-01-19 22:27] · скачан: 138 раз
Статус: √ проверено
Размер: 5.19 GB
Как cкачать? Как скачать Борг через торрент | qTorrent

% Раздел Тема Автор DL S | L
Фильмы 2017 [DVDrip, WEB-DLRip, HDrip] (DUB, MVO) [ 1.41 GB ] Борг/Макинрой / Borg McEnroe [2017 биография BDRip] - Twi7ter Скачать
1 | 0
Фильмы [HD 720p, 1080p] (Хороший звук DUB, MVO) [ 8.95 GB ] Борг/Макинрой / Borg McEnroe [2017 биография BDRip 1080p] bober100 Скачать
1 | 0
Фильмы (Blu-ray, BD-Remux, HDDVD) [ 23.75 GB ] Борг/Макинрой / Borg McEnroe [2017 биография BD Remux 1080p] bober100 Скачать
1 | 0
Фильмы (WEB-DL 720p, 1080p) [ 3.72 GB ] Борг/Макинрой / Borg McEnroe [2017 биография WEB-DL 1080p] - -Lexx- Скачать
1 | 0
Фильмы 2017 [DVDrip, WEB-DLRip, HDrip] (DUB, MVO) [ 1.46 GB ] Борг/Макинрой / Borg McEnroe [2017 биография WEB-DLRip] - -Lexx- Скачать
1 | 0

28-11-2019 20:33  

Отключить всю рекламу на сайте

20-01-2018 01:38 Борг Скачать торрент  

Отличное кино!pb.wtf



    Дорогой пользователь! Огромная просьба, поблагодарите релизера, оцените раздачу и оставьте свои комментарий, если Вы скачали Борг через торрент бесплатно! Внесите свою лепту в развитие PiratBit!
    Комментировать посты могут только пользователи прошедшие не сложную регистрацию
    Показать сообщения:    

    Борг через торрент
    Скачать бесплатно Борг
    Борг скачать торрент
    Борг смотреть онлайн
    Cкачать фильм Борг бесплатно
    Борг скачать торрент в хорошем качестве
    Борг смотреть онлайн бесплатно в хорошем качестве


    Вы не можете начинать темы
    Вы не можете отвечать на сообщения
    Вы не можете редактировать свои сообщения
    Вы не можете удалять свои сообщения
    Вы не можете голосовать в опросах
    Вы не можете прикреплять файлы к сообщениям
    Вы можете скачивать файлы