Ссылка на приватное зеркало нашего сайта всего за 1$. Внимание количество ограничено!!!

2 сезон

iTunes

1 сезон

1

2 сезон

2 сезон

iTunes

1 сезон

RePack

30

Ultimate

ВАЖНО

ИГРА 18+

pack

RePack

MK11
pack

Забери бонус

RePack

jed

!!Акция!!

Alien_Rage

RePack

fifa19

RePack

Assassins Creed: Odyssey

RePack

NEED FOR SPEED™ PAYBACK

4 сезон

9 сезон

Бесстыжие 9 сезон

Все сериалы

все сериалы на PB.wtf

RePack

FAR CRY 5
  

Черная молния / Black Lightning / Сезон: 1 / Серия: 1-13 из 13 (Салим Акил, Билле Вудрафф) [2018, фантастика, боевик, WEB-DL 720p] MVO [Good People] pb.wtf

Черная молния через торрент pb.wtf

Размер: 14.44 GB | Добавлен: 2 года 5 мес. назад | Торрент скачан:8 раз
Скачать  

20-01-2018 04:25 Черная молния Скачать торрент  

Черная молния / Black LightningГод выпуска: 2018
Страна: США
Жанр: фантастика, боевик
Продолжительность: 00:44:00
Перевод: Профессиональный многоголосый |Good People
Субтитры: английские

Режиссер: Салим Акил, Билле Вудрафф

rating

В ролях:

Грегг Генри, Кресс Уильямс, Нафиса Уильямс, Чайна Энн МакКлейн, Кристин Адамс,Донни Керрингтон, Чарлби Дин Крик, Шеин Момпремиа, Энтони Рейнольдс, Чантал Тхюй

Описание:

Сериал посвящен супергерою DC Черной молнии, который вынужден вернуться из добровольной отставки, когда опасная банда начинает угрожать спокойствию жителей его города.

Качество: WEB-DL 720p
Формат: MKV

Видео: H.264, 1280x720 (16:9), 23.976 fps, ~3074kbps, ~0.132 bit/pixel
Аудио#1: (русская дорожка): Dolby AC3 48000Hz 5.1 640 Kbps
Аудио#2: (русская дорожка): Dolby E-AC3 48000Hz 5.1 640 Kbps
скриншот  скриншот  скриншот  

Общее
Уникальный идентификатор : 179460517015862301879484593525464693696 (0x8702D69E791806688E7017B1EA42FBC0)
Полное имя : D:\Black Lightning. Season 1 (WEBRip l 720p l Good People)\Black.Lightning.S01E01.The.Resurrection.720p.AMZN.WEB-DL.DD+5.1.H.264-GoodPeople.mkv
Формат : Matroska
Версия формата : Version 2
Размер файла : 1,27 Гбайт
Продолжительность : 42 м. 18 с.
Режим общего битрейта : Переменный
Общий поток : 4285 Кбит/сек
Дата кодирования : UTC 2018-01-19 23:43:54
Программа кодирования : mkvmerge v5.4.0 ('Piper') built on Mar 10 2012 13:34:39
Библиотека кодирования : libebml v1.2.3 + libmatroska v1.3.0

Видео
Идентификатор : 1
Формат : AVC
Формат/Информация : Advanced Video Codec
Профиль формата : High@L3.1
Параметр CABAC формата : Да
Параметр ReFrames формата : 5 кадров
Идентификатор кодека : V_MPEG4/ISO/AVC
Продолжительность : 42 м. 18 с.
Вид битрейта : Переменный
Битрейт : 2920 Кбит/сек
Максимальный битрейт : 4500 Кбит/сек
Ширина : 1280 пикселей
Высота : 720 пикселей
Соотношение сторон : 16:9
Режим частоты кадров : Постоянный
Частота кадров : 23,976 (24000/1001) кадра/сек
Цветовое пространство : YUV
Субдискретизация насыщенности : 4:2:0
Битовая глубина : 8 бит
Тип развёртки : Прогрессивная
Бит/(Пиксели*Кадры) : 0.132
Размер потока : 884 Мбайт (68%)
Default : Да
Forced : Нет
Цветовой диапазон : Limited
Основные цвета : BT.709
Характеристики трансфера : BT.709
Коэффициенты матрицы : BT.709
Statistics Tags Issue : mkvmerge v17.0.0 ('Be Ur Friend') 64-bit 2018-01-17 12:38:12 / mkvmerge v5.4.0 ('Piper') built on Mar 10 2012 13:34:39 2018-01-19 23:43:54
FromStats_BitRate : 3003173
FromStats_Duration : 00:42:18.661000000
FromStats_FrameCount : 60867
FromStats_StreamSize : 953004937

Аудио #1
Идентификатор : 2
Формат : AC-3
Формат/Информация : Audio Coding 3
Расширение режима : CM (complete main)
Параметр Endianness формата : Big
Идентификатор кодека : A_AC3
Продолжительность : 42 м. 18 с.
Вид битрейта : Постоянный
Битрейт : 640 Кбит/сек
Каналы : 6 каналов
Расположение каналов : Front: L C R, Side: L R, LFE
Частота : 48,0 КГц
Частота кадров : 31,250 кадров/сек (1536 spf)
Метод сжатия : С потерями
Размер потока : 194 Мбайт (15%)
Язык : Russian
Default : Да
Forced : Нет

Аудио #2
Идентификатор : 3
Формат : E-AC-3
Формат/Информация : Audio Coding 3
Параметр Endianness формата : Big
Идентификатор кодека : A_EAC3
Продолжительность : 42 м. 18 с.
Вид битрейта : Постоянный
Битрейт : 640 Кбит/сек
Каналы : 6 каналов
Расположение каналов : Front: L C R, Side: L R, LFE
Частота : 48,0 КГц
Частота кадров : 187,500 кадров/сек (256 spf)
Метод сжатия : С потерями
Размер потока : 194 Мбайт (15%)
Язык : English
Default : Нет
Forced : Нет
Statistics Tags Issue : mkvmerge v17.0.0 ('Be Ur Friend') 64-bit 2018-01-17 12:38:12 / mkvmerge v5.4.0 ('Piper') built on Mar 10 2012 13:34:39 2018-01-19 23:43:54
FromStats_BitRate : 640000
FromStats_Duration : 00:42:18.624000000
FromStats_FrameCount : 79332
FromStats_StreamSize : 203089920

Текст
Идентификатор : 4
Формат : UTF-8
Идентификатор кодека : S_TEXT/UTF8
Идентификатор кодека/Информация : UTF-8 Plain Text
Язык : English
Default : Нет
Forced : Нет
Statistics Tags Issue : mkvmerge v17.0.0 ('Be Ur Friend') 64-bit 2018-01-17 12:38:12 / mkvmerge v5.4.0 ('Piper') built on Mar 10 2012 13:34:39 2018-01-19 23:43:54
FromStats_BitRate : 87
FromStats_Duration : 00:41:27.285000000
FromStats_FrameCount : 731
FromStats_StreamSize : 27072

Когда раздача ведётся путём добавления новых серий, при каждом добавлении создётся новый торрент. Чтобы начать докачку новой серии, пользователям необходимо сделать следующее:
(1) остановить скачивание,
(2) удалить старый торрент у себя из клиента (старые серии удалять не надо),
(3) скачать новый торрент и запустить его у себя в клиенте вместо старого, при этом указать клиенту путь в старую папку, куда и должно происходить скачивание новых серий.
Ваш клиент при этом должен произвести хеширование (проверку) старой папки (если не производит сам - помогите ему сделать это), и будет докачивать только те серии, которых у вас ещё нет. Старые серии при этом не удаляются, а продолжают раздаваться!
Eсли вы уже удалили старые серии, то предотвратить повторную закачку старых серий можно, отжав галочку в соответсвующих местах при запуске нового торрента. По возможности, желательно не удалять старые серии как можно дольше, чтобы релизёр не столько продолжал раздавать старые серии, а смог сконцентрироваться на новых.
pb.wtf



Скачать Черная молния через торрент http://i102.fastpic.ru/big/2018/0120/fa/df3cb73022c90daea1ceb84fbc7acefa.jpg Скачать фильм Черная молния через торрент бесплантно в хорошем качестве Описание: Сериал посвящен супергерою DC Черной молнии, который вынужден вернуться из добровольной отставки, когда опасная банда начинает ... 10 10 2
Торрент: Зарегистрирован [2018-06-18 07:05] · скачан: 8 раз
Статус: √ проверено
Размер: 14.44 GB
Как cкачать? Как скачать Черная молния через торрент | qTorrent

% Раздел Тема Автор DL S | L
Зарубежные сериалы [ 13.47 GB ] Черная молния / Black Lightning / Сезон: 1 / Серии: 1-13 из 13 [2018 WEBRip 720p] MVO [Jaskier] bober100 Скачать
1 | 0
Зарубежные сериалы [ 6.72 GB ] Черная молния / Black Lightning / Сезон: 1 / Серии: 1-13 из 13 [2018 WEB-DLRip] MVO [NewStudio] bober100 Скачать
1 | 0
Зарубежные сериалы [ 18.33 GB ] Черная молния / Black Lightning / Сезон: 1 / Серии: 1-13 из 13 [2018 WEB-DL 720p] MVO [NewStudio] bober100 Скачать
1 | 0
Зарубежные сериалы [ 5.82 GB ] Черная молния / Black Lightning / Сезон 1 / Серия 1-13 из 13 [2018 WEB-DLRip] [MVO] killermax2013 Скачать
1 | 0
Зарубежные сериалы [ 24.38 GB ] Черная молния / Black Lightning / Сезон 1 / Серия 1-13 из 13 [2018 WEB-DLRip 1080p] [MVO] killermax2013 Скачать
1 | 0
Зарубежные сериалы [ 5.96 GB ] Черная молния / Black Lightning / Сезон 1 / Серия 1-13 из 13 [2018 HDTVRip] [MVO] killermax2013 Скачать
1 | 0
Зарубежные сериалы [ 6.44 GB ] Черная молния / Black Lightning / Сезон: 1 / Серии: 1-13 из 13 [2018 HDTVRip] DVO [SunshineStudio] bober100 Скачать
1 | 0

28-11-2019 20:33  

Отключить всю рекламу на сайте

18-06-2018 10:48 Черная молния Скачать торрент  

А ЧО ГЕРОЙ ТО ДЕБИЛ?? ОН НА ВСЕХ СКРИНАХ С ОТКРЫТЫМ РТОМ...pb.wtf



    Дорогой пользователь! Огромная просьба, поблагодарите релизера, оцените раздачу и оставьте свои комментарий, если Вы скачали Черная молния через торрент бесплатно! Внесите свою лепту в развитие PiratBit!
    Комментировать посты могут только пользователи прошедшие не сложную регистрацию
    Показать сообщения:    

    Черная молния через торрент
    Скачать бесплатно Черная молния
    Черная молния скачать торрент
    Черная молния смотреть онлайн
    Cкачать фильм Черная молния бесплатно
    Черная молния скачать торрент в хорошем качестве
    Черная молния смотреть онлайн бесплатно в хорошем качестве


    Вы не можете начинать темы
    Вы не можете отвечать на сообщения
    Вы не можете редактировать свои сообщения
    Вы не можете удалять свои сообщения
    Вы не можете голосовать в опросах
    Вы не можете прикреплять файлы к сообщениям
    Вы можете скачивать файлы