Доктор Стрэндж

Лицензия

Добыча

MVO

Дом дракона

1 сезон

Тор

Лицензия

Мэверик

Лицензия

Там, где раки поют

MVO

Властелин колец

1 сезон

Ultimate

pack

Рекомендуем

30

Repack

ВАЖНО

ВАЖНО

Ghostwire

RePack

jed

RePack

nioh2

RePack

RDR2

RePack

NEED FOR SPEED™ PAYBACK

RePack

скачать торрент

Кинопоиск HD

Острые козырьки 6 сезон

6 сезон

FAR CRY 6

RePack

скачать торрент

Лицензия

скачать торрент

MVO

1

1 сезон

скачать торрент

1 сезон

скачать торрент

Лицензия

  

Одиночка / A man apart (Ф. Гэри Грей) [2003, боевик, триллер, драма, криминал, BDRip 720p by msltel] DUB, DVO, 2 x AVO

Одиночка через торрент pb.wtf

Качают: 1 [ 0 KB/s ]
Размер: 5.42 GB | Добавлен: 4 года 8 мес. назад | Торрент скачан:79 раз
Смотреть онлайн Одиночка | Скачать   

20-01-2018 06:47 Одиночка Скачать торрент  

Название: Одиночка
Оригинальное название: A man apart
Год выпуска: 2003
Страна: Германия, США
Жанр: боевик, триллер, драма, криминал
Продолжительность: 01:49:36
Перевод: дублированный, закадровый двухголосый, авторский

Режиссер: Ф. Гэри Грей
В ролях: Вин Дизель, Лоренц Тейт, Тимоти Олифант, Джино Сильва, Жаклин Обрадорс, Стив Истин, Хуан Фернандес, Джефф Кобер, Марко Родригес, Майк Морофф, Эмилио Ривера, Джордж Шарперсон, Малик Строутер, Элис Эмтер, Джим Боэк, Рубелио Брекемонте, Бен Брэй, Норм Комптон, Атьяна Кунс-Паркер, Эстебан Куето, Кен Давитян, Эйприл Флауэрс, Элиан Фитц-Картер, Роберт Фрад, Захари Джон Гонзалес, Ричард Гросс, Ричард Хаж, Паула Харрисон, Тоби Холгин, Терри Хойос, Томас Копаче, Джулия Ли (III), Ф. Валентино Моралес, Скотт Рейц, Джо Родригез, Мик Скриба, Каррин Стеффанс-МакКрэри

О фильме: Вин Дизель - в роли агента Шона Веттера, оперативника, борющегося с контрабандой наркотиков из Мексики. После того как глава наркокартели был заключён в тюрьму, появляется новый таинственный персонаж, известный как Дьябло, который берёт в свои руки контроль над всем трафиком. После убийства жены Шон и его коллега должны внедриться в преступный картель, чтобы вычислить неуловимого Дьябло...



Качество: BDRip 720p
Формат: MKV
Видео: MPEG-4 AVC, 4966 Kбит/с, 1280x544
Аудио 1: русский, AC3, 384 kbps, 6 ch, 48 kHz [дублированный]
Аудио 2: русский, AC3, 384 kbps, 6 ch, 48 kHz [закадровый двухголосый, DDV]
Аудио 3: русский, AC3, 448 kbps, 6 ch, 48 kHz [авторский, Юрий Живов]
Аудио 4: русский, AC3, 448 kbps, 6 ch, 48 kHz [авторский, Евгений Рудой]
Аудио 5: английский, AC3, 448 kbps, 6 ch, 48 kHz [оригинал]
Субтитры 1: русские
Субтитры 2: английские
Английские хардсабы на неанглийскую речь.
Неименованные главы/чаптеры.
Общее
Уникальный идентификатор : 221657158343878782272724762994643202850 (0xA6C19DA9472519B8832E4610F70E7322)
Полное имя : D:\Video\Одиночка.2003.BDRip.720p by msltel.mkv
Формат : Matroska
Версия формата : Version 4 / Version 2
Размер файла : 5,42 Гбайт
Продолжительность : 1 ч. 49 м.
Общий поток : 7081 Кбит/сек
Название фильма : Rip by msltel
Дата кодирования : UTC 2018-01-20 03:18:52
Программа кодирования : mkvmerge v8.2.0 ('World of Adventure') 64bit
Библиотека кодирования : libebml v1.3.1 + libmatroska v1.4.2

Видео
Идентификатор : 1
Формат : AVC
Формат/Информация : Advanced Video Codec
Профиль формата : [email protected]
Настройки формата : CABAC / 9 Ref Frames
Параметр CABAC формата : Да
Параметр RefFrames формата : 9 кадров
Идентификатор кодека : V_MPEG4/ISO/AVC
Продолжительность : 1 ч. 49 м.
Битрейт : 4966 Кбит/сек
Ширина : 1280 пикселей
Высота : 544 пикселя
Соотношение сторон : 2,35:1
Режим частоты кадров : Постоянный
Частота кадров : 23,976 (24000/1001) кадра/сек
Цветовое пространство : YUV
Субдискретизация насыщенности : 4:2:0
Битовая глубина : 8 бит
Тип развёртки : Прогрессивная
Бит/(Пиксели*Кадры) : 0.297
Размер потока : 3,80 Гбайт (70%)
Библиотека кодирования : x264 core 146 r2538 121396c
Настройки программы : cabac=1 / ref=9 / deblock=1:-3:-2 / analyse=0x3:0x113 / me=umh / subme=11 / psy=1 / psy_rd=1.00:0.15 / mixed_ref=1 / me_range=32 / chroma_me=1 / trellis=2 / 8x8dct=1 / cqm=0 / deadzone=21,11 / fast_pskip=0 / chroma_qp_offset=-3 / threads=6 / lookahead_threads=1 / sliced_threads=0 / nr=0 / decimate=1 / interlaced=0 / bluray_compat=0 / constrained_intra=0 / bframes=10 / b_pyramid=2 / b_adapt=2 / b_bias=0 / direct=1 / weightb=1 / open_gop=0 / weightp=2 / keyint=230 / keyint_min=23 / scenecut=40 / intra_refresh=0 / rc_lookahead=40 / rc=crf / mbtree=0 / crf=21.1 / qcomp=0.60 / qpmin=0 / qpmax=69 / qpstep=4 / vbv_maxrate=62500 / vbv_bufsize=78125 / crf_max=0.0 / nal_hrd=none / filler=0 / ip_ratio=1.40 / pb_ratio=1.30 / aq=1:1.00
Язык : English
Default : Да
Forced : Нет

Аудио #1
Идентификатор : 2
Формат : AC-3
Формат/Информация : Audio Coding 3
Идентификатор кодека : A_AC3
Продолжительность : 1 ч. 49 м.
Вид битрейта : Постоянный
Битрейт : 384 Кбит/сек
Каналы : 6 каналов
Расположение каналов : Front: L C R, Side: L R, LFE
Частота : 48,0 КГц
Частота кадров : 31,250 кадров/сек (1536 SPF)
Битовая глубина : 16 бит
Метод сжатия : С потерями
Размер потока : 301 Мбайт (5%)
Заголовок : DUB
Язык : Russian
ServiceKind/String : Complete Main
Default : Да
Forced : Нет

Аудио #2
Идентификатор : 3
Формат : AC-3
Формат/Информация : Audio Coding 3
Идентификатор кодека : A_AC3
Продолжительность : 1 ч. 49 м.
Вид битрейта : Постоянный
Битрейт : 384 Кбит/сек
Каналы : 6 каналов
Расположение каналов : Front: L C R, Side: L R, LFE
Частота : 48,0 КГц
Частота кадров : 31,250 кадров/сек (1536 SPF)
Битовая глубина : 16 бит
Метод сжатия : С потерями
Размер потока : 301 Мбайт (5%)
Заголовок : DVO.DDV
Язык : Russian
ServiceKind/String : Complete Main
Default : Нет
Forced : Нет

Аудио #3
Идентификатор : 4
Формат : AC-3
Формат/Информация : Audio Coding 3
Идентификатор кодека : A_AC3
Продолжительность : 1 ч. 49 м.
Вид битрейта : Постоянный
Битрейт : 448 Кбит/сек
Каналы : 6 каналов
Расположение каналов : Front: L C R, Side: L R, LFE
Частота : 48,0 КГц
Частота кадров : 31,250 кадров/сек (1536 SPF)
Битовая глубина : 16 бит
Метод сжатия : С потерями
Размер потока : 351 Мбайт (6%)
Заголовок : Юрий Живов
Язык : Russian
ServiceKind/String : Complete Main
Default : Нет
Forced : Нет

Аудио #4
Идентификатор : 5
Формат : AC-3
Формат/Информация : Audio Coding 3
Идентификатор кодека : A_AC3
Продолжительность : 1 ч. 49 м.
Вид битрейта : Постоянный
Битрейт : 448 Кбит/сек
Каналы : 6 каналов
Расположение каналов : Front: L C R, Side: L R, LFE
Частота : 48,0 КГц
Частота кадров : 31,250 кадров/сек (1536 SPF)
Битовая глубина : 16 бит
Метод сжатия : С потерями
Размер потока : 351 Мбайт (6%)
Заголовок : Евгений Рудой
Язык : Russian
ServiceKind/String : Complete Main
Default : Нет
Forced : Нет

Аудио #5
Идентификатор : 6
Формат : AC-3
Формат/Информация : Audio Coding 3
Идентификатор кодека : A_AC3
Продолжительность : 1 ч. 49 м.
Вид битрейта : Постоянный
Битрейт : 448 Кбит/сек
Каналы : 6 каналов
Расположение каналов : Front: L C R, Side: L R, LFE
Частота : 48,0 КГц
Частота кадров : 31,250 кадров/сек (1536 SPF)
Битовая глубина : 16 бит
Метод сжатия : С потерями
Размер потока : 351 Мбайт (6%)
Заголовок : original
Язык : English
ServiceKind/String : Complete Main
Default : Нет
Forced : Нет

Текст #1
Идентификатор : 7
Формат : UTF-8
Идентификатор кодека : S_TEXT/UTF8
Идентификатор кодека/Информация : UTF-8 Plain Text
Продолжительность : 1 ч. 43 м.
Битрейт : 69 бит/сек
ElementCount : 942
Размер потока : 52,7 Кбайт (0%)
Заголовок : русские
Язык : Russian
Default : Нет
Forced : Нет

Текст #2
Идентификатор : 8
Формат : UTF-8
Идентификатор кодека : S_TEXT/UTF8
Идентификатор кодека/Информация : UTF-8 Plain Text
Продолжительность : 1 ч. 47 м.
Битрейт : 51 бит/сек
ElementCount : 1198
Размер потока : 40,7 Кбайт (0%)
Заголовок : английские
Язык : English
Default : Нет
Forced : Нет

Меню
00:00:00.000 : :Chapter 01
00:03:33.004 : :Chapter 02
00:11:24.767 : :Chapter 03
00:12:34.878 : :Chapter 04
00:14:29.159 : :Chapter 05
00:16:59.852 : :Chapter 06
00:21:21.405 : :Chapter 07
00:25:05.795 : :Chapter 08
00:30:05.344 : :Chapter 09
00:34:48.878 : :Chapter 10
00:37:59.193 : :Chapter 11
00:42:48.524 : :Chapter 12
00:46:27.993 : :Chapter 13
00:53:04.681 : :Chapter 14
00:54:53.748 : :Chapter 15
00:57:27.861 : :Chapter 16
01:03:12.872 : :Chapter 17
01:10:07.286 : :Chapter 18
01:12:03.819 : :Chapter 19
01:17:30.979 : :Chapter 20
01:21:13.118 : :Chapter 21
01:24:34.152 : :Chapter 22
01:28:13.329 : :Chapter 23
01:35:45.613 : :Chapter 24
01:41:46.100 : :Chapter 25
01:44:28.762 : :Chapter 26
01:49:35.902 : :Chapter 27



Скачать Одиночка через торрент https://a.radikal.ru/a12/1801/2b/d9ee46813312.jpg Скачать, смотреть онлайн Одиночка бесплантно в хорошем качестве О фильме: Вин Дизель - в роли агента Шона Веттера, оперативника, борющегося с контрабандой наркотиков из Мексики. После того как глава ... 10 10 2
Info! Золотая раздача, скачанное не засчитывается.
Торрент: Зарегистрирован [2018-01-20 06:47] · скачан: 79 раз
Статус: √ проверено
Размер: 5.42 GB
Как cкачать? Как скачать Одиночка через торрент | UTorrent

% Раздел Тема Автор DL S | L
Фильмы [HD 720p, 1080p] (Хороший звук DUB, MVO) [ 13.38 GB ] Одиночка / A man apart | DUB | 1080p by msltel msltel Скачать
1 | 0

28-11-2019 20:33  

Отключить вcю реклaмy на сайте

21-01-2018 15:56 Одиночка Скачать торрент  

msltel, Спасибо! Вин Дизель



    Дорогой пользователь! Огромная просьба, поблагодарите релизера, оцените раздачу и оставьте свои комментарий, если Вы скачали Одиночка через торрент бесплатно!!
    Комментировать посты могут только пользователи прошедшие не сложную регистрацию
    Показать сообщения:    


    Одиночка через торрент
    Скачать бесплатно Одиночка
    Одиночка скачать торрент
    Одиночка смотреть онлайн
    Cкачать фильм Одиночка бесплатно
    Одиночка скачать торрент в хорошем качестве
    Одиночка смотреть онлайн бесплатно в хорошем качестве
    Вы не можете начинать темы
    Вы не можете отвечать на сообщения
    Вы не можете редактировать свои сообщения
    Вы не можете удалять свои сообщения
    Вы не можете голосовать в опросах
    Вы не можете прикреплять файлы к сообщениям
    Вы можете скачивать файлы