Ссылка на приватное зеркало нашего сайта всего за 1$. Внимание количество ограничено!!!

2 сезон

iTunes

1 сезон

1

2 сезон

2 сезон

iTunes

1 сезон

RePack

30

Ultimate

ВАЖНО

ИГРА 18+

pack

RePack

MK11
pack

Забери бонус

RePack

jed

!!Акция!!

Alien_Rage

RePack

fifa19

RePack

Assassins Creed: Odyssey

RePack

NEED FOR SPEED™ PAYBACK

4 сезон

9 сезон

Бесстыжие 9 сезон

Все сериалы

все сериалы на PB.wtf

RePack

FAR CRY 5
  

Чи / The Chi / Сезон: 1 / Серии: 1-10 из 10 (Дэйв Родригез, Таня Хэмилтон, Рик Фамуйива) [2018, драма, WEB-DL 720p] MVO [NewStudio] pb.wtf

Чи через торрент pb.wtf

Размер: 13.85 GB | Добавлен: 2 года 7 мес. назад | Торрент скачан:2 раза
Скачать  

20-01-2018 07:32 Чи Скачать торрент  

Чи / The ChiИнформация о фильме:

Название: Чи
Оригинальное название: The Chi
Год выпуска: 2018 (1 сезон)
Страна: США / Fox 21 Television Studios, Freedom Road Productions
Жанр: драма
Продолжительность: ~ 00:58:00 серия
Перевод: Профессиональный многоголосый - NewStudio
Субтитры: Русские
Примечание: Присутствует реклама!

Режиссер: Дэйв Родригез, Таня Хэмилтон, Рик Фамуйива

rating

В ролях:

Алена Леуан, Тосин Морохунфола, Дэвид Алан Андерсон, Хосе Антонио Гарсия, Армандо Риско, Джейсон Митчелл, Freddy Moyano, Julian Williams, Оливия Бёрд, Chronicle Ganawah

Описание:

События драмы происходят в Чикаго. Герои сериала «Чи» — жители бедных южных районов города, со сложной криминогенной обстановкой. Афроамериканцы, живущие здесь, вынуждены каждый день рисковать жизнью и искать возможность заработать денег. Подростки, живущие в Чикаго, быстро взрослеют. Таков и Алекс Хибберт: мальчику пришлось рано распрощаться с детскими мечтами и приложить серьезные усилия, чтобы чего-то добиться в жизни...

Информация о файле:

Качество: WEB-DL 720p
Формат: MKV
Видео кодек: H.264
Аудио кодек: AC3

Видео: ~ 3300 kbps, 1280x720 (16:9), 23.976 fps
Аудио#1 RUS: AC3, 48 KHz, 6 ch, 384 kbps
Аудио#2 ENG: AC3, 48 KHz, 6 ch, 640 kbps

скриншот  скриншот  скриншот   скриншот   скриншот   скриншот  

Общее
Уникальный идентификатор : 325909284330731480503343110482423752557 (0xF52FD850E9C55486DD0161E89410A76D)
Полное имя : D:\The Chi (Season 01) Newstudio 720\The.Chi.s01e01.WEBDL.720p.NewStudio.TV.mkv
Формат : Matroska
Версия формата : Version 4 / Version 2
Размер файла : 1,71 Гбайт
Продолжительность : 57 м. 31 с.
Режим общего битрейта : Переменный
Общий поток : 4268 Кбит/сек
Название фильма : The.Chi.S01E01.720p.WEB.h264-CONVOY
Дата кодирования : UTC 2018-01-20 00:48:46
Программа кодирования : mkvmerge v20.0.0 ('I Am The Sun') 64-bit
Библиотека кодирования : libebml v1.3.5 + libmatroska v1.4.8

Видео
Идентификатор : 1
Формат : AVC
Формат/Информация : Advanced Video Codec
Профиль формата : High@L3.1
Параметр CABAC формата : Да
Параметр RefFrames формата : 5 кадров
Идентификатор кодека : V_MPEG4/ISO/AVC
Продолжительность : 57 м. 31 с.
Вид битрейта : Переменный
Битрейт : 3159 Кбит/сек
Максимальный битрейт : 4500 Кбит/сек
Ширина : 1280 пикселей
Высота : 720 пикселей
Соотношение сторон : 16:9
Режим частоты кадров : Постоянный
Частота кадров : 23,976 (24000/1001) кадра/сек
Цветовое пространство : YUV
Субдискретизация насыщенности : 4:2:0
Битовая глубина : 8 бит
Тип развёртки : Прогрессивная
Бит/(Пиксели*Кадры) : 0.143
Размер потока : 1,27 Гбайт (74%)
Default : Да
Forced : Нет
Цветовой диапазон : Limited
Основные цвета : BT.709
Характеристики трансфера : BT.709
Коэффициенты матрицы : BT.709

Аудио #1
Идентификатор : 2
Формат : AC-3
Формат/Информация : Audio Coding 3
Расширение режима : CM (complete main)
Параметр Endianness формата : Big
Идентификатор кодека : A_AC3
Продолжительность : 57 м. 31 с.
Вид битрейта : Постоянный
Битрейт : 384 Кбит/сек
Каналы : 6 каналов
Расположение каналов : Front: L C R, Side: L R, LFE
Частота : 48,0 КГц
Частота кадров : 31,250 кадров/сек (1536 spf)
Метод сжатия : С потерями
Размер потока : 158 Мбайт (9%)
Заголовок : NewStudio.TV
Язык : Russian
Default : Да
Forced : Нет

Аудио #2
Идентификатор : 3
Формат : E-AC-3
Формат/Информация : Audio Coding 3
Параметр Endianness формата : Big
Идентификатор кодека : A_EAC3
Продолжительность : 57 м. 31 с.
Вид битрейта : Постоянный
Битрейт : 640 Кбит/сек
Каналы : 6 каналов
Расположение каналов : Front: L C R, Side: L R, LFE
Частота : 48,0 КГц
Частота кадров : 187,500 кадров/сек (256 spf)
Метод сжатия : С потерями
Размер потока : 263 Мбайт (15%)
Язык : English
Default : Нет
Forced : Нет

Текст
Идентификатор : 4
Формат : ASS
Идентификатор кодека : S_TEXT/ASS
Идентификатор кодека/Информация : Advanced Sub Station Alpha
Метод сжатия : Без потерь
Язык : Russian
Default : Да
Forced : Да

Внимание! Раздача ведётся путём добавления новых серий; при каждом добавлении создаётся новый торрент. Чтобы начать докачку новой серии, пользователям необходимо сделать следующее:
(1) остановить скачивание,
(2) удалить старый торрент у себя из клиента (старые серии удалять не надо),
(3) скачать новый торрент и запустить его у себя в клиенте вместо старого, при этом указать клиенту путь в старую папку куда и должно происходить скачивание новых серий.
Ваш клиент при этом должен произвести хеширование (проверку) старой папки (если не производит сам - помогите ему сделать это), и будет докачивать только те серии которых у вас ещё нет. Старые серии при этом не удаляются, а продолжают раздаваться!
Eсли вы уже удалили старые серии, то предотвратить повторную закачку старых серий можно, отжав галочку в соответствующих местах при запуске нового торрента. По возможности, желательно не удалять старые серии как можно дольше чтобы релизёр не столько продолжал раздавать старые серии, а смог сконцентрироваться на новых.
pb.wtf



Скачать Чи через торрент http://i103.fastpic.ru/big/2018/0110/f5/446425ab56ca54bfa61f510aaa04b1f5.png Скачать фильм Чи через торрент бесплантно в хорошем качестве Описание: События драмы происходят в Чикаго. Герои сериала «Чи» — жители бедных южных районов города, со сложной криминогенной обстановкой. ... 10 10 5
Торрент: Зарегистрирован [2018-04-16 18:11] · скачан: 2 раз
Статус: √ проверено
Размер: 13.85 GB
Как cкачать? Как скачать Чи через торрент | qTorrent

% Раздел Тема Автор DL S | L
Зарубежные сериалы [ 7.84 GB ] Чи / The Chi / Сезон: 3 / Серии: 1-10 из 10 [2020 WEB-DLRip] MVO [FOX] bober100 Скачать
1 | 0
Зарубежные сериалы [ 34.19 GB ] Чи / The Chi / Сезон: 3 / Серии: 1-10 из 10 [2020 WEB-DL 1080p] [MVO] killermax2013 Скачать
1 | 0
Зарубежные сериалы [ 27.75 GB ] Чи / The Chi / Сезон: 3 / Серии: 1-10 из 10 [2020 WEBRip 1080p] [MVO] killermax2013 Скачать
1 | 0
Зарубежные сериалы [ 67.29 GB ] Чи / The Chi / Сезон: 2 / Серии: 1-10 из 10 [2019 WEBRip 1080p] [MVO] killermax2013 Скачать
1 | 0
Зарубежные сериалы [ 33.28 GB ] Чи / The Chi / Сезон: 1 / Серии: 1-10 из 10 [2018 WEBRip 1080p] [MVO] killermax2013 Скачать
1 | 0
Зарубежные сериалы [ 6.86 GB ] Чи / The Chi / Сезон: 1 / Серии: 1-10 из 10 [2018 WEB-DLRip] [MVO] killermax2013 Скачать
1 | 0
Зарубежные сериалы [ 22.38 GB ] Чи / The Chi / Сезон: 2 / Серии: 1-10 из 10 [2019 WEBRip 720p] DVO [Octopus] bober100 Скачать
1 | 0

28-11-2019 20:33  

Отключить всю рекламу на сайте

    Дорогой пользователь! Огромная просьба, поблагодарите релизера, оцените раздачу и оставьте свои комментарий, если Вы скачали Чи через торрент бесплатно! Внесите свою лепту в развитие PiratBit!
    Комментировать посты могут только пользователи прошедшие не сложную регистрацию
    Показать сообщения:    

    Чи через торрент
    Скачать бесплатно Чи
    Чи скачать торрент
    Чи смотреть онлайн
    Cкачать фильм Чи бесплатно
    Чи скачать торрент в хорошем качестве
    Чи смотреть онлайн бесплатно в хорошем качестве


    Вы не можете начинать темы
    Вы не можете отвечать на сообщения
    Вы не можете редактировать свои сообщения
    Вы не можете удалять свои сообщения
    Вы не можете голосовать в опросах
    Вы не можете прикреплять файлы к сообщениям
    Вы можете скачивать файлы