Ссылка на приватное зеркало всего за 1$. Внимание количество ограничено!!!

OK

1+1

iTunes

мы

OK

1

WEB-DLRip

Джокер

Пифагор

Ведьмак / The Witcher сериал

iTunes

ПШазам

ОК

Оно 2

iTunes

30
pack

Вам бонус

ВАЖНО

!!Акция!!

Alien_RageХит недели

RePack

Resident Evil 21

ИГРА 18+

pack

RePack

jed

RePack

fifa19

RePack

Assassins Creed: Odyssey

RePack

NEED FOR SPEED™ PAYBACK

4 сезон

9 сезон

Бесстыжие 9 сезон

Все сериалы

все сериалы на PB.wtf

RePack

FAR CRY 5
  

Достойный / The Worthy (Али Ф. Мостафа) [2016, триллер, WEB-DL 720p] MVO ["Синема УС"] pb.wtf

Достойный через торрент pb.wtf

Размер: 3.23 GB | Добавлен: 2 года назад | Торрент скачан:81 раз
Скачать  

20-01-2018 08:30 Достойный Скачать торрент  

Достойный / The WorthyГод выпуска: 2016
Страна: Румыния, ОАЭ
Жанр: триллер
Продолжительность: 01:40:28
Перевод: Любительский (многоголосый) ["Синема УС"]
Субтитры: отсутствуют

Режиссер: Али Ф. Мостафа

rating

В ролях:

Али Сулиман, Майса Абд Эльхади, Махмуд Аль-Атраш, Мохаммад Аль-Ибрахими, Набель Ахмад Алкони, Руба Блаль, Хабиб Гулум, Салах Ханнун, Самер Исмаил, Рашед Малхас

Описание:

После того как большая часть человечества погибла от зараженной воды, небольшая группа выживших скрывается на заброшенном заводе. Однажды, в нарушение правил, они решают приютить двух незнакомцев с пустошей, и внезапно оказываются втянуты в смертельную игру, в которой должен выжить только самый достойный.

Качество: WEB-DL 720p
Формат: MKV
Видео кодек: H.264
Аудио кодек: AC3

Видео: 4212 Кбит/с, 1280x536
Аудио#1: AC3, 2 ch, 384 Кбит/с

скриншот  скриншот  скриншот  

Общее
Уникальный идентификатор : 205068703616405905125310571816004899825 (0x9A46CBB2AD69EB0E9EE290E046AC53F1)
Полное имя : D:\The.Worthy.2016.P.WEB-DL.72Op_KOSHARA.mkv
Формат : Matroska
Версия формата : Version 2
Размер файла : 3,23 Гбайт
Продолжительность : 1 ч. 40 м.
Режим общего битрейта : Переменный
Общий поток : 4598 Кбит/сек
Дата кодирования : UTC 2018-01-17 17:27:13
Программа кодирования : mkvmerge v8.3.0 ('Over the Horizon') 64bit
Библиотека кодирования : libebml v1.3.1 + libmatroska v1.4.2

Видео
Идентификатор : 1
Формат : AVC
Формат/Информация : Advanced Video Codec
Профиль формата : High@L4.1
Параметр CABAC формата : Да
Параметр ReFrames формата : 12 кадров
Идентификатор кодека : V_MPEG4/ISO/AVC
Продолжительность : 1 ч. 40 м.
Вид битрейта : Переменный
Битрейт : 4212 Кбит/сек
Максимальный битрейт : 4600 Кбит/сек
Ширина : 1280 пикселей
Высота : 536 пикселей
Соотношение сторон : 2,40:1
Режим частоты кадров : Постоянный
Частота кадров : 23,976 (24000/1001) кадра/сек
Стандарт вещания : Component
Цветовое пространство : YUV
Субдискретизация насыщенности : 4:2:0
Битовая глубина : 8 бит
Тип развёртки : Прогрессивная
Бит/(Пиксели*Кадры) : 0.251
Размер потока : 2,89 Гбайт (90%)
Default : Да
Forced : Нет
Цветовой диапазон : Limited
Основные цвета : BT.709
Характеристики трансфера : BT.709
Коэффициенты матрицы : BT.709

Аудио
Идентификатор : 2
Формат : AC-3
Формат/Информация : Audio Coding 3
Расширение режима : CM (complete main)
Параметр Endianness формата : Big
Идентификатор кодека : A_AC3
Продолжительность : 1 ч. 40 м.
Вид битрейта : Постоянный
Битрейт : 384 Кбит/сек
Каналы : 2 канала
Расположение каналов : Front: L R
Частота : 48,0 КГц
Частота кадров : 31,250 кадров/сек (1536 spf)
Метод сжатия : С потерями
Размер потока : 276 Мбайт (8%)
Default : Да
Forced : Нет

pb.wtf



Скачать Достойный через торрент https://d.radikal.ru/d08/1801/df/377ac74676e0.jpg Скачать фильм Достойный через торрент бесплантно в хорошем качестве Описание: После того как большая часть человечества погибла от зараженной воды, небольшая группа выживших скрывается на заброшенном заводе. ... 8.7 10 7
Торрент: Зарегистрирован [2018-01-20 08:30] · скачан: 81 раз
Статус: T временная
Размер: 3.23 GB
Как cкачать? Как скачать Достойный через торрент | qTorrent

% Раздел Тема Автор DL S | L
T Фильмы (мультфильмы) cо спонсором показа (Новинки AVI/MKV) [ 1.37 GB ] Достойный / The Worthy [2016 WEB-DLRip] MVO ["Синема УС"] bober100 Скачать
1 | 0

28-11-2019 20:33  

Отключить всю рекламу на сайте

20-01-2018 19:19 Достойный Скачать торрент  

bober100, Спасибо! pb.wtf



    Дорогой пользователь! Огромная просьба, поблагодарите релизера, оцените раздачу и оставьте свои комментарий, если Вы скачали Достойный через торрент бесплатно! Внесите свою лепту в развитие PiratBit!
    Комментировать посты могут только пользователи прошедшие не сложную регистрацию
    Показать сообщения:    

    Достойный через торрент
    Скачать бесплатно Достойный
    Достойный скачать торрент
    Достойный смотреть онлайн
    Cкачать фильм Достойный бесплатно
    Достойный скачать торрент в хорошем качестве
    Достойный смотреть онлайн бесплатно в хорошем качестве


    Вы не можете начинать темы
    Вы не можете отвечать на сообщения
    Вы не можете редактировать свои сообщения
    Вы не можете удалять свои сообщения
    Вы не можете голосовать в опросах
    Вы не можете прикреплять файлы к сообщениям
    Вы можете скачивать файлы