Ссылка на приватное зеркало всего за 1$. Внимание количество ограничено!!!

OK

1+1

iTunes

мы

OK

1

WEB-DLRip

Джокер

Пифагор

Ведьмак / The Witcher сериал

iTunes

ПШазам

ОК

Оно 2

iTunes

30
pack

Вам бонус

ВАЖНО

!!Акция!!

Alien_RageХит недели

RePack

Resident Evil 21

ИГРА 18+

pack

RePack

jed

RePack

fifa19

RePack

Assassins Creed: Odyssey

RePack

NEED FOR SPEED™ PAYBACK

4 сезон

9 сезон

Бесстыжие 9 сезон

Все сериалы

все сериалы на PB.wtf

RePack

FAR CRY 5
  

Вечеринка / The Party (Салли Поттер) [2017 г., драма, комедия, BDRip 720p] MVO [официальный звук] pb.wtf

Вечеринка через торрент pb.wtf

Размер: 3.17 GB | Добавлен: 2 года назад | Торрент скачан:179 раз
Скачать  

20-01-2018 13:24 Вечеринка Скачать торрент  

Вечеринка / The PartyГод выпуска: 2017
Страна: Великобритания
Жанр: драма, комедия
Продолжительность: 01:11:36
Перевод: Профессиональный многоголосый - [официальный звук]
Субтитры: отсутствуют

Режиссер: Салли Поттер

rating

В ролях:

Патришия Кларксон, Бруно Ганц, Черри Джонс, Эмили Мортимер, Киллиан Мёрфи, Кристин Скотт Томас, Тимоти Сполл

Описание:

Дома у Билла и Джэнет собираются старые друзья — посидеть, выпить вина, поделиться новостями, тем более, что в жизни всех участников встречи происходит что-то интересное. Вечер удался бы на славу, но тут Билл сделал такое заявление, что настроение у всех резко испортилось. Теперь старые друзья уже готовы вцепиться друг другу в глотку, как в переносном, так и во вполне прямом смысле...

Качество: BDRip 720p
Формат: MKV
Видео кодек: H.264
Аудио кодек: AC3

Видео: 5929 Кбит/с, 1280x536
Аудио#1: Русский, (AC3, 2 ch, 448 Кбит/с)

скриншот  скриншот  скриншот  

Общее
Уникальный идентификатор : 214816765321971796631191814947846364368 (0xA19C343F2D389FC0A96C50B168FA1CD0)
Полное имя : D:\The.Party.2017.P.of.BDRip.72Op.mkv
Формат : Matroska
Версия формата : Version 2
Размер файла : 3,17 Гбайт
Продолжительность : 1 ч. 11 м.
Режим общего битрейта : Переменный
Общий поток : 6379 Кбит/сек
Дата кодирования : UTC 2018-01-20 00:33:44
Программа кодирования : mkvmerge v8.3.0 ('Over the Horizon') 64bit
Библиотека кодирования : libebml v1.3.1 + libmatroska v1.4.2

Видео
Идентификатор : 1
Формат : AVC
Формат/Информация : Advanced Video Codec
Профиль формата : High@L4.1
Параметр CABAC формата : Да
Параметр ReFrames формата : 12 кадров
Идентификатор кодека : V_MPEG4/ISO/AVC
Продолжительность : 1 ч. 11 м.
Вид битрейта : Переменный
Битрейт : 5929 Кбит/сек
Максимальный битрейт : 6800 Кбит/сек
Ширина : 1280 пикселей
Высота : 536 пикселей
Соотношение сторон : 2,40:1
Режим частоты кадров : Постоянный
Частота кадров : 23,976 (24000/1001) кадра/сек
Стандарт вещания : Component
Цветовое пространство : YUV
Субдискретизация насыщенности : 4:2:0
Битовая глубина : 8 бит
Тип развёртки : Прогрессивная
Бит/(Пиксели*Кадры) : 0.353
Размер потока : 2,88 Гбайт (91%)
Default : Да
Forced : Нет
Цветовой диапазон : Limited
Основные цвета : BT.709
Характеристики трансфера : BT.709
Коэффициенты матрицы : BT.709

Аудио
Идентификатор : 2
Формат : AC-3
Формат/Информация : Audio Coding 3
Расширение режима : CM (complete main)
Параметр Endianness формата : Big
Идентификатор кодека : A_AC3
Продолжительность : 1 ч. 11 м.
Вид битрейта : Постоянный
Битрейт : 448 Кбит/сек
Каналы : 2 канала
Расположение каналов : Front: L R
Частота : 48,0 КГц
Частота кадров : 31,250 кадров/сек (1536 spf)
Метод сжатия : С потерями
Размер потока : 228 Мбайт (7%)
Default : Да
Forced : Нет

pb.wtf



Скачать Вечеринка через торрент http://i062.radikal.ru/1712/f5/9588a362504f.png Скачать фильм Вечеринка через торрент бесплантно в хорошем качестве Описание: Дома у Билла и Джэнет собираются старые друзья — посидеть, выпить вина, поделиться новостями, тем более, что в жизни всех ... 8.2 10 5
Торрент: Зарегистрирован [2018-01-20 13:24] · скачан: 179 раз
Статус: # сомнительно
Размер: 3.17 GB
Как cкачать? Как скачать Вечеринка через торрент | qTorrent

% Раздел Тема Автор DL S | L
T Фильмы (мультфильмы) cо спонсором показа (Новинки AVI/MKV) [ 1.37 GB ] Цыплячья вечеринка / The Chicken Party [2018 WEB-DLRip] MVO ["Синема УС"] bober100 Скачать
1 | 0
T Фильмы (WEB-DL 720p, 1080p) [ 3.28 GB ] Вечеринка в честь развода / The Divorce Party [2019 WEB-DL 1080p] MVO [HDRezka Studio] bober100 Скачать
1 | 0
T Фильмы 2019-2020 [DVDrip, WEB-DLRip, HDrip] (DUB, MVO) [ 1.45 GB ] Вечеринка в честь развода / The Divorce Party [2019 Мело HDRip] MVO [HDRezka Studio] - ExKinoRay Enigma2010 Скачать
1 | 0
T Фильмы (мультфильмы) cо спонсором показа (Новинки AVI/MKV) [ 3.42 GB ] Вечеринка только начинается / The Party's Just Beginning [2018 WEB-DL 720p] MVO ["Синема УС"] bober100 Скачать
1 | 0
T Фильмы (мультфильмы) cо спонсором показа (Новинки AVI/MKV) [ 1.37 GB ] Вечеринка только начинается / The Party's Just Beginning [2018 WEB-DLRip] MVO ["Синема УС"] bober100 Скачать
1 | 0
Фильмы 2014 (Звук TS, Cam, VO, DVO) [ 1.4 GB ] Убойная вечеринка / Killer Party [2014 WEBRip-AVC] [VO] killermax2013 Скачать
1 | 0
Фильмы 2017 [DVDrip, WEB-DLRip, HDrip] (DUB, MVO) [ 1.36 GB ] Вечеринка / The Party [2017 HDRip] MVO [Jaskier] -Lexx- Скачать
1 | 0

28-11-2019 20:33  

Отключить всю рекламу на сайте

    Дорогой пользователь! Огромная просьба, поблагодарите релизера, оцените раздачу и оставьте свои комментарий, если Вы скачали Вечеринка через торрент бесплатно! Внесите свою лепту в развитие PiratBit!
    Комментировать посты могут только пользователи прошедшие не сложную регистрацию
    Показать сообщения:    

    Вечеринка через торрент
    Скачать бесплатно Вечеринка
    Вечеринка скачать торрент
    Вечеринка смотреть онлайн
    Cкачать фильм Вечеринка бесплатно
    Вечеринка скачать торрент в хорошем качестве
    Вечеринка смотреть онлайн бесплатно в хорошем качестве


    Вы не можете начинать темы
    Вы не можете отвечать на сообщения
    Вы не можете редактировать свои сообщения
    Вы не можете удалять свои сообщения
    Вы не можете голосовать в опросах
    Вы не можете прикреплять файлы к сообщениям
    Вы можете скачивать файлы