Всегда рабочее зеркало без VPN и Proxy просто перед .vidak.icu напиши любое слово или цифру, Пример http://3vgy.vidak.icu

MVO

MVO

1 сезон

1

1 сезон

iTunes

1 сезон

13

1 сезон

Deluxe

pack

Рекомендуем

Repack

30

ВАЖНО

RePack

MK11

RePack

jed

RePack

fifa19

RePack

RDR2

RePack

NEED FOR SPEED™ PAYBACK

Кинопоиск HD

6 сезон

 Острые козырьки 6 сезон

Все сериалы

все сериалы на PB.wtf

RePack

FAR CRY 5
  
Magnet ссылка

Престиж / The Prestige (Кристофер Нолан) [2006, Триллер, драма, детектив, UHD BDRemux 2160p] DUB+2xDVO+4xAVO+2xMVO (ukr) pb.wtf

Престиж через торрент pb.wtf

Размер: 74.8 GB | Добавлен: 4 года 6 мес. назад | Торрент скачан:77 раз
Смотреть онлайн Престиж | Скачать    Ребята, помогите собрать деньги на оплату серверов!!!

20-01-2018 13:37 Престиж Скачать торрент  

Престиж / The PrestigeГод выпуска: 2006
Страна: США, Великобритания
Жанр: Триллер, драма, детектив
Продолжительность: 02:10:18
Перевод: Дубляж, профессиональный двухголосый, авторский
Субтитры: Русские, английские, украинские

Режиссер: Кристофер Нолан

rating

В ролях:

Хью Джекман, Кристиан Бэйл, Майкл Кейн, Пайпер Перабо, Ребекка Холл, Скарлетт Йоханссон, Саманта Мэхурин, Дэвид Боуи, Энди Серкис, Дэниэл Дэвис, Джим Пиддок, Кристофер Ним, Марк Райан, Роджер Рис, Джэми Харрис, Монти Стюарт, Рон Перкинс, Рикки Джей, Энтони Де Марко, Чао Ли Чи, Грегори Хэмпфри, Джон Б. Край, Уильям Морган Шеппард, Шон Хоус, Джули Санфорд

Описание:

Роберт и Альфред - фокусники-иллюзионисты, которые на рубеже XIX и XX веков соперничали друг с другом в Лондоне. С годами их дружеская конкуренция на профессиональной почве перерастает в настоящую войну. Они готовы на все, чтобы выведать друг у друга секреты фантастических трюков и сорвать их исполнение. Непримиримая вражда, вспыхнувшая между ними, начинает угрожать жизни окружающих их людей. Экранизация произведения Кристофера Приста.

Качество: UHD BDRemux 2160p
Формат: MKV

Видео: 54.8 Мбит/с, 3840x2160, 23.976 Кадр/с
Аудио#1: Русский: 48 kHz, AC3, 3/2 (L,C,R,l,r) + LFE ch, ~640.00 kbps - Дубляж (Blu-ray 4К)
Аудио#2: Русский: 48 kHz/24-bit, DTS-HD MA 5.1, ~3589.00 kbps - Дубляж
Аудио#3: Русский: 48 kHz/24-bit, DTS-HD MA 5.1, ~3634.00 kbps Профессиональный двухголосый (П.Гланц+И.Королева)
Аудио#4: Русский: 48 kHz/24-bit, DTS-HD MA 5.1, ~3641.00 kbps - Авторский (Ю.Сербин)
Аудио#5: Русский: 48 kHz/24-bit, DTS-HD MA 5.1, ~3663.00 kbps - Авторский (A.Гаврилов)
Аудио#6: Русский: 48 kHz/24-bit, DTS-HD MA 5.1, ~3642.00 kbps - Авторский (C.Визгунов)
Аудио#7: Русский: 48 kHz/24-bit, DTS-HD MA 5.1, ~3632.00 kbps - Авторский (В.Королев)
Аудио#8: Русский: 48 kHz, AC3, 3/2 (L,C,R,l,r) + LFE ch, ~640.00 kbps - Профессиональный двухголосый
Аудио#9: Украинский: 48 kHz, AC3, 2/0 (L,R) ch, ~192.00 kbps - Профессиональный многоголосый (ICTV)
Аудио#10: Украинский: 48 kHz, AC3, 2/0 (L,R) ch, ~192.00 kbps - Профессиональный многоголосый (Так Треба Продакшн)
Аудио#11: Английский: 48 kHz/24-bit, DTS-HD MA 5.1, ~3644.00 kbps - Оригинал
Аудио#12: Английский: 48 kHz, AC3, 2/0 (L,R) ch, ~192.00 kbps - Audiodeion
скриншот  скриншот  скриншот  скриншот  скриншот  скриншот  

Видео
Идентификатор : 1
Формат : HEVC
Формат/Информация : High Efficiency Video Coding
Профиль формата : Main [email protected]@High
Идентификатор кодека : V_MPEGH/ISO/HEVC
Продолжительность : 2 ч. 10 м.
Битрейт : 54,8 Мбит/сек
Ширина : 3840 пикселей
Высота : 2160 пикселей
Соотношение сторон : 16:9
Режим частоты кадров : Постоянный
Частота кадров : 23,976 (24000/1001) кадра/сек
Цветовое пространство : YUV
Субдискретизация насыщенности : 4:2:0 (Type 2)
Битовая глубина : 10 бит
Бит/(Пиксели*Кадры) : 0.276
Размер потока : 49,9 Гбайт (67%)
Заголовок : The.Prestige.2006.2160p.BluRay.HEVC.HDR
Библиотека кодирования : ATEME Titan File 3.8.3 (4.8.3.0)
Default : Да
Forced : Нет
Цветовой диапазон : Limited
Основные цвета : BT.2020
Характеристики трансфера : PQ
Коэффициенты матрицы : BT.2020 non-constant
MasteringDisplay_ColorPrimaries : Display P3
MasteringDisplay_Luminance : min: 0.0050 cd/m2, max: 4000 cd/m2
MaxCLL : 1121 cd/m2
MaxFALL : 284 cd/m2

Аудио #1
Идентификатор : 2
Формат : AC-3
Формат/Информация : Audio Coding 3
Идентификатор кодека : A_AC3
Продолжительность : 2 ч. 10 м.
Вид битрейта : Постоянный
Битрейт : 640 Кбит/сек
Каналы : 6 каналов
Расположение каналов : Front: L C R, Side: L R, LFE
Частота : 48,0 КГц
Частота кадров : 31,250 кадров/сек (1536 SPF)
Битовая глубина : 16 бит
Метод сжатия : С потерями
Размер потока : 596 Мбайт (1%)
Заголовок : Дубляж, Blu-ray 4K
Язык : Russian
ServiceKind/String : Complete Main
Default : Да
Forced : Нет

Аудио #2
Идентификатор : 3
Формат : DTS
Формат/Информация : Digital Theater Systems
Профиль формата : MA / Core
Идентификатор кодека : A_DTS
Продолжительность : 2 ч. 10 м.
Вид битрейта : Переменный / Постоянный
Битрейт : 3589 Кбит/сек / 1509 Кбит/сек
Каналы : 6 каналов
Расположение каналов : Front: L C R, Side: L R, LFE
Частота : 48,0 КГц
Частота кадров : 93,750 кадра/сек (512 SPF)
Битовая глубина : 24 бит
Метод сжатия : Без потерь / Lossy
Размер потока : 3,27 Гбайт (4%)
Заголовок : Дубляж DTS-HD MA 5.1
Язык : Russian
Default : Нет
Forced : Нет

Аудио #3
Идентификатор : 4
Формат : DTS
Формат/Информация : Digital Theater Systems
Профиль формата : MA / Core
Идентификатор кодека : A_DTS
Продолжительность : 2 ч. 10 м.
Вид битрейта : Переменный / Постоянный
Битрейт : 3634 Кбит/сек / 1509 Кбит/сек
Каналы : 6 каналов
Расположение каналов : Front: L C R, Side: L R, LFE
Частота : 48,0 КГц
Частота кадров : 93,750 кадра/сек (512 SPF)
Битовая глубина : 24 бит
Метод сжатия : Без потерь / Lossy
Размер потока : 3,31 Гбайт (4%)
Заголовок : DTS-HD MA 5.1, ~3634.00 kbps avg | П.Гланц+И.Королева|
Язык : Russian
Default : Нет
Forced : Нет

Аудио #4
Идентификатор : 5
Формат : DTS
Формат/Информация : Digital Theater Systems
Профиль формата : MA / Core
Идентификатор кодека : A_DTS
Продолжительность : 2 ч. 10 м.
Вид битрейта : Переменный / Постоянный
Битрейт : 3641 Кбит/сек / 1509 Кбит/сек
Каналы : 6 каналов
Расположение каналов : Front: L C R, Side: L R, LFE
Частота : 48,0 КГц
Частота кадров : 93,750 кадра/сек (512 SPF)
Битовая глубина : 24 бит
Метод сжатия : Без потерь / Lossy
Размер потока : 3,32 Гбайт (4%)
Заголовок : DTS-HD MA 5.1, ~3641.00 kbps avg | Ю.Сербин|
Язык : Russian
Default : Нет
Forced : Нет

Аудио #5
Идентификатор : 6
Формат : DTS
Формат/Информация : Digital Theater Systems
Профиль формата : MA / Core
Идентификатор кодека : A_DTS
Продолжительность : 2 ч. 10 м.
Вид битрейта : Переменный / Постоянный
Битрейт : 3663 Кбит/сек / 1509 Кбит/сек
Каналы : 6 каналов
Расположение каналов : Front: L C R, Side: L R, LFE
Частота : 48,0 КГц
Частота кадров : 93,750 кадра/сек (512 SPF)
Битовая глубина : 24 бит
Метод сжатия : Без потерь / Lossy
Размер потока : 3,34 Гбайт (4%)
Заголовок : DTS-HD MA 5.1, ~3663.00 kbps avg | A.Гаврилов|
Язык : Russian
Default : Нет
Forced : Нет

Аудио #6
Идентификатор : 7
Формат : DTS
Формат/Информация : Digital Theater Systems
Профиль формата : MA / Core
Идентификатор кодека : A_DTS
Продолжительность : 2 ч. 10 м.
Вид битрейта : Переменный / Постоянный
Битрейт : 3642 Кбит/сек / 1509 Кбит/сек
Каналы : 6 каналов
Расположение каналов : Front: L C R, Side: L R, LFE
Частота : 48,0 КГц
Частота кадров : 93,750 кадра/сек (512 SPF)
Битовая глубина : 24 бит
Метод сжатия : Без потерь / Lossy
Размер потока : 3,32 Гбайт (4%)
Заголовок : DTS-HD MA 5.1, ~3642.00 kbps | C.Визгунов|
Язык : Russian
Default : Нет
Forced : Нет

Аудио #7
Идентификатор : 8
Формат : DTS
Формат/Информация : Digital Theater Systems
Профиль формата : MA / Core
Идентификатор кодека : A_DTS
Продолжительность : 2 ч. 10 м.
Вид битрейта : Переменный / Постоянный
Битрейт : 3632 Кбит/сек / 1509 Кбит/сек
Каналы : 6 каналов
Расположение каналов : Front: L C R, Side: L R, LFE
Частота : 48,0 КГц
Частота кадров : 93,750 кадра/сек (512 SPF)
Битовая глубина : 24 бит
Метод сжатия : Без потерь / Lossy
Размер потока : 3,31 Гбайт (4%)
Заголовок : DTS-HD MA 5.1, ~3632.00 kbps | В.Королев|
Язык : Russian
Default : Нет
Forced : Нет

Аудио #8
Идентификатор : 9
Формат : AC-3
Формат/Информация : Audio Coding 3
Идентификатор кодека : A_AC3
Продолжительность : 2 ч. 6 м.
Вид битрейта : Постоянный
Битрейт : 640 Кбит/сек
Каналы : 6 каналов
Расположение каналов : Front: L C R, Side: L R, LFE
Частота : 48,0 КГц
Частота кадров : 31,250 кадров/сек (1536 SPF)
Битовая глубина : 16 бит
Метод сжатия : С потерями
Размер потока : 580 Мбайт (1%)
Заголовок : AC3 5.1 ~640 kbps - Двухголосый
Язык : Russian
ServiceKind/String : Complete Main
Default : Нет
Forced : Нет

Аудио #9
Идентификатор : 10
Формат : AC-3
Формат/Информация : Audio Coding 3
Идентификатор кодека : A_AC3
Продолжительность : 2 ч. 10 м.
Вид битрейта : Постоянный
Битрейт : 192 Кбит/сек
Каналы : 2 канала
Расположение каналов : Front: L R
Частота : 48,0 КГц
Частота кадров : 31,250 кадров/сек (1536 SPF)
Битовая глубина : 16 бит
Метод сжатия : С потерями
Размер потока : 179 Мбайт (0%)
Заголовок : | MVO, ICTV|
Язык : Ukrainian
ServiceKind/String : Complete Main
Default : Нет
Forced : Нет

Аудио #10
Идентификатор : 11
Формат : AC-3
Формат/Информация : Audio Coding 3
Идентификатор кодека : A_AC3
Продолжительность : 2 ч. 10 м.
Вид битрейта : Постоянный
Битрейт : 192 Кбит/сек
Каналы : 2 канала
Расположение каналов : Front: L R
Частота : 48,0 КГц
Частота кадров : 31,250 кадров/сек (1536 SPF)
Битовая глубина : 16 бит
Метод сжатия : С потерями
Размер потока : 179 Мбайт (0%)
Заголовок : | MVO, Так Треба Продакшн|
Язык : Ukrainian
ServiceKind/String : Complete Main
Default : Нет
Forced : Нет

Аудио #11
Идентификатор : 12
Формат : DTS
Формат/Информация : Digital Theater Systems
Профиль формата : MA / Core
Идентификатор кодека : A_DTS
Продолжительность : 2 ч. 10 м.
Вид битрейта : Переменный / Постоянный
Битрейт : 3644 Кбит/сек / 1509 Кбит/сек
Каналы : 6 каналов
Расположение каналов : Front: L C R, Side: L R, LFE
Частота : 48,0 КГц
Частота кадров : 93,750 кадра/сек (512 SPF)
Битовая глубина : 24 бит
Метод сжатия : Без потерь / Lossy
Размер потока : 3,32 Гбайт (4%)
Заголовок : Original
Язык : English
Default : Нет
Forced : Нет

Аудио #12
Идентификатор : 13
Формат : AC-3
Формат/Информация : Audio Coding 3
Идентификатор кодека : A_AC3
Продолжительность : 2 ч. 10 м.
Вид битрейта : Постоянный
Битрейт : 192 Кбит/сек
Каналы : 2 канала
Расположение каналов : Front: L R
Частота : 48,0 КГц
Частота кадров : 31,250 кадров/сек (1536 SPF)
Битовая глубина : 16 бит
Метод сжатия : С потерями
Размер потока : 179 Мбайт (0%)
Заголовок : |Commentary|
Язык : English
ServiceKind/String : Complete Main
Default : Нет
Forced : Нет

Текст #1
Идентификатор : 14
Формат : UTF-8
Идентификатор кодека : S_TEXT/UTF8
Идентификатор кодека/Информация : UTF-8 Plain Text
Продолжительность : 2 ч. 9 м.
Битрейт : 101 бит/сек
ElementCount : 1568
Размер потока : 96,5 Кбайт (0%)
Заголовок : Full 1
Язык : Russian
Default : Нет
Forced : Нет

Текст #2
Идентификатор : 15
Формат : UTF-8
Идентификатор кодека : S_TEXT/UTF8
Идентификатор кодека/Информация : UTF-8 Plain Text
Продолжительность : 2 ч. 4 м.
Битрейт : 112 бит/сек
ElementCount : 1580
Размер потока : 102 Кбайт (0%)
Заголовок : Full 2
Язык : Russian
Default : Нет
Forced : Нет

Текст #3
Идентификатор : 16
Формат : UTF-8
Идентификатор кодека : S_TEXT/UTF8
Идентификатор кодека/Информация : UTF-8 Plain Text
Продолжительность : 2 ч. 9 м.
Битрейт : 98 бит/сек
ElementCount : 1561
Размер потока : 93,4 Кбайт (0%)
Заголовок : Full
Язык : Ukrainian
Default : Нет
Forced : Нет

Текст #4
Идентификатор : 17
Формат : UTF-8
Идентификатор кодека : S_TEXT/UTF8
Идентификатор кодека/Информация : UTF-8 Plain Text
Продолжительность : 2 ч. 4 м.
Битрейт : 60 бит/сек
ElementCount : 1587
Размер потока : 55,3 Кбайт (0%)
Заголовок : Full
Язык : English
Default : Нет
Forced : Нет

Меню
00:00:00.000 : en:Introduction
00:03:30.210 : en:"Something Went Wrong..."
00:07:45.465 : en:A Search for Answers
00:11:40.700 : en:The Start of a Great Career
00:16:03.963 : en:Total Devotion to His Art
00:23:19.398 : en:A Strong Knot
00:27:20.389 : en:More in Love With Magic
00:33:59.829 : en:An Effective Form of Misdirection
00:38:46.616 : en:The Great Danton
00:44:34.005 : en:Happiness That Should Have Been Mine
00:49:28.132 : en:Man's Reach Exceeds His Grasp
00:53:28.455 : en:A Complex Illusion
00:59:49.586 : en:The New Transported Man
01:04:01.171 : en:The Mistress of My Enemy
01:08:48.416 : en:Complete Power
01:12:57.832 : en:The Keyword Is the Method
01:17:47.204 : en:Secrets Are My Life
01:23:16.658 : en:Exact Science Is Not an Exact Science
01:35:49.243 : en:An Old Friend
01:40:19.263 : en:Considerable Risk
01:45:17.311 : en:The Prestige
01:49:03.162 : en:A Better Magician
01:55:06.608 : en:Are You Watching Closely?
02:04:59.492 : en:End Credits

pb.wtf



Скачать Престиж через торрент http://img12.lostpic.net/2018/01/20/0ea0fd09a3de341a7dfccb2e6e573cf5.jpg Скачать, смотреть онлайн Престиж бесплантно в хорошем качестве Описание: Роберт и Альфред - фокусники-иллюзионисты, которые на рубеже XIX и XX веков соперничали друг с другом в Лондоне. С годами их ... 10 10 5
Info! Золотая раздача, скачанное не засчитывается.
Торрент: Зарегистрирован [2018-01-20 13:37] · скачан: 77 раз
Статус: √ проверено
Размер: 74.8 GB
Как cкачать? Как скачать Престиж через торрент | UTorrent

% Раздел Тема Автор DL S | L
Ultra HD (UHD: 2K, 4K, 8K) — видео сверхвысокой чёткости [ 68.82 GB ] Престиж / The Prestige [2006 UHD Blu-ray 2160p] DUB bober100 Скачать
1 | 0
Фильмы [HD 720p, 1080p] (Хороший звук DUB, MVO) [ 21.66 GB ] Престиж / The Prestige [2006 BDRip 1080p by msltel] DUB 2 x DVO 4 x AVO msltel Скачать
1 | 0
Фильмы [HD 720p, 1080p] (Хороший звук DUB, MVO) [ 7.88 GB ] Престиж / The Prestige [2006 BDRip 720p by msltel] DUB 2 x DVO 4 x AVO msltel Скачать
1 | 0
Фильмы (HD 720p, 1080p) (48-60 fps) [ 6.36 GB ] Престиж / The Prestige [2006 BDRip 720p / 60 fps] DUB еnvy Скачать
1 | 0
Фильмы [HD 720p, 1080p] (Хороший звук DUB, MVO) [ 5.52 GB ] Престиж / The Prestige [2006 BDRip DUB + Оригинал ] F.U. Скачать
1 | 0
Фильмы 2006-2008 [ 1.47 GB ] Престиж / The Prestige [2006 HDRip] Frim Скачать
1 | 0
Фильмы 2006-2008 [ 2.18 GB ] Престиж / The Prestige [2006 BDRip] .::Sergey::. Скачать
1 | 0

28-11-2019 20:33  

Отключить вcю реклaмy на сайте

    Дорогой пользователь! Огромная просьба, поблагодарите релизера, оцените раздачу и оставьте свои комментарий, если Вы скачали Престиж через торрент бесплатно!
    Комментировать посты могут только пользователи прошедшие не сложную регистрацию
    Показать сообщения:    

    Престиж через торрент
    Скачать бесплатно Престиж
    Престиж скачать торрент
    Престиж смотреть онлайн
    Cкачать фильм Престиж бесплатно
    Престиж скачать торрент в хорошем качестве
    Престиж смотреть онлайн бесплатно в хорошем качестве


    Вы не можете начинать темы
    Вы не можете отвечать на сообщения
    Вы не можете редактировать свои сообщения
    Вы не можете удалять свои сообщения
    Вы не можете голосовать в опросах
    Вы не можете прикреплять файлы к сообщениям
    Вы можете скачивать файлы