Ссылка на приватное зеркало нашего сайта всего за 1$. Внимание количество ограничено!!!

2 сезон

iTunes

1 сезон

1

2 сезон

2 сезон

iTunes

1 сезон

RePack

30

Ultimate

ВАЖНО

ИГРА 18+

pack

RePack

MK11
pack

Забери бонус

RePack

jed

!!Акция!!

Alien_Rage

RePack

fifa19

RePack

Assassins Creed: Odyssey

RePack

NEED FOR SPEED™ PAYBACK

4 сезон

9 сезон

Бесстыжие 9 сезон

Все сериалы

все сериалы на PB.wtf

RePack

FAR CRY 5
  

Пила 8 / Jigsaw (Майкл Спириг, Питер Спириг) [2017, Ужасы, триллер, криминал, детектив, BD Remux 1080p] DUB [iTunes] pb.wtf

Пила 8 через торрент pb.wtf

Размер: 25.1 GB | Добавлен: 2 года 10 мес. назад | Торрент скачан:219 раз
Скачать  

20-01-2018 13:51 Пила 8 Скачать торрент  

Пила 8 / JigsawГод выпуска: 2017
Страна: США
Жанр: Ужасы, триллер, криминал, детектив
Продолжительность: 01:31:56
Перевод: Дублированный | iTunes
Субтитры: английские

Режиссер: Майкл Спириг, Питер Спириг

rating

В ролях:

Мэтт Пассмор, Тобин Белл, Каллум Кит Ренни, Ханна Андерсон, Кле Беннетт, Лора Вандервурт, Пол Браунштейн, Мандела Ван Пиблз, Бриттани Аллен, Джозиа Блэк

Описание:

В городе обнаруживают несколько тел, обладатели которых встретили определенно не лучший конец. Все улики указывают на одного человека: Джона Крамера. Но как это возможно? Человек, известный как Пила, мертв уже более десяти лет. Неужели все-таки нашелся тот, кто рискнул подобрать мантию жестокого маньяка?

Качество: BD Remux 1080p
Формат: MKV

Видео: MPEG-4 AVC, 1920x1080, 34.2 Mbit/s, 23.976 fps
Аудио#1: 48 kHz, AC3, 5.1, 384 Kbps | Дублированный | iTunes | RUS |скриншот  
Аудио#2: 48 kHz, TrueHD, 7.1, 3817 Kbps | Оригинал | ENG |скриншот  
Аудио#3: 48 kHz, AC3, 5.1, 640 Kbps | Оригинал | ENG |
скриншот  скриншот  
скриншот   скриншот   скриншот   скриншот   скриншот  

General
Unique ID : 168058585720479601397422356900294334077 (0x7E6EE800FC65D396DACD987C2D2E967D)
Complete name : G:VideoSSDJigsaw.2017.BDREMUX.1080p.ExKinoRay.mkv
Format : Matroska
Format version : Version 4 / Version 2
File size : 25.1 GiB
Duration : 1 h 31 min
Overall bit rate mode : Variable
Overall bit rate : 39.1 Mb/s
Movie name : Jigsaw 2017 from ExKinoRay
Encoded date : UTC 2018-01-20 12:39:30
Writing application : mkvmerge v20.0.0 ('I Am The Sun') 64-bit
Writing library : libebml v1.3.5 + libmatroska v1.4.8

Video
ID : 1
Format : AVC
Format/Info : Advanced Video Codec
Format profile : High@L4.1
Format settings : CABAC / 4 Ref Frames
Format settings, CABAC : Yes
Format settings, ReFrames : 4 frames
Codec ID : V_MPEG4/ISO/AVC
Duration : 1 h 31 min
Bit rate mode : Variable
Bit rate : 34.2 Mb/s
Maximum bit rate : 37.0 Mb/s
Width : 1 920 pixels
Height : 1 080 pixels
Display aspect ratio : 16:9
Frame rate mode : Constant
Frame rate : 23.976 (23976/1000) FPS
Original frame rate : 23.976 (24000/1001) FPS
Color space : YUV
Chroma subsampling : 4:2:0
Bit depth : 8 bits
Scan type : Progressive
Bits/(Pixel*Frame) : 0.687
Stream size : 21.9 GiB (87%)
Language : English
Default : Yes
Forced : No

Audio #1
ID : 2
Format : AC-3
Format/Info : Audio Coding 3
Codec ID : A_AC3
Duration : 1 h 31 min
Bit rate mode : Constant
Bit rate : 384 kb/s
Channel(s) : 6 channels
Channel positions : Front: L C R, Side: L R, LFE
Sampling rate : 48.0 kHz
Frame rate : 31.250 FPS (1536 SPF)
Bit depth : 16 bits
Compression mode : Lossy
Stream size : 253 MiB (1%)
Title : iTunes
Language : Russian
Service kind : Complete Main
Default : Yes
Forced : No

Audio #2
ID : 3
Format : TrueHD
Format profile : TrueHD+Atmos / TrueHD
Codec ID : A_TRUEHD
Duration : 1 h 31 min
Bit rate mode : Variable
Bit rate : 3 817 kb/s
Maximum bit rate : 6 375 kb/s
Channel(s) : Object Based / 8 channels
Channel positions : Object Based / Front: L C R, Side: L R, Back: L R, LFE
Sampling rate : / 48.0 kHz
Frame rate : 1 200.000 FPS (40 SPF)
Compression mode : Lossless
Delay relative to video : 1 ms
Stream size : 2.45 GiB (10%)
Title : Original
Language : English
Default : No
Forced : No

Audio #3
ID : 4
Format : AC-3
Format/Info : Audio Coding 3
Codec ID : A_AC3
Duration : 1 h 31 min
Bit rate mode : Constant
Bit rate : 640 kb/s
Channel(s) : 6 channels
Channel positions : Front: L C R, Side: L R, LFE
Sampling rate : 48.0 kHz
Frame rate : 31.250 FPS (1536 SPF)
Bit depth : 16 bits
Compression mode : Lossy
Delay relative to video : 1 ms
Stream size : 421 MiB (2%)
Language : English
Service kind : Complete Main
Default : No
Forced : No

Text
ID : 5
Format : UTF-8
Codec ID : S_TEXT/UTF8
Codec ID/Info : UTF-8 Plain Text
Duration : 1 h 24 min
Bit rate : 53 b/s
Count of elements : 1146
Stream size : 32.9 KiB (0%)
Title : Full
Language : English
Default : No
Forced : No

Menu
00:00:00.000 : en:Chapter 1
00:03:46.976 : en:Chapter 2
00:10:39.847 : en:Chapter 3
00:14:09.974 : en:Chapter 4
00:22:39.608 : en:Chapter 5
00:29:03.408 : en:Chapter 6
00:35:18.533 : en:Chapter 7
00:40:38.519 : en:Chapter 8
00:43:09.211 : en:Chapter 9
00:46:12.352 : en:Chapter 10
00:52:00.742 : en:Chapter 11
00:56:34.224 : en:Chapter 12
01:04:13.849 : en:Chapter 13
01:09:17.569 : en:Chapter 14
01:13:33.283 : en:Chapter 15
01:23:31.089 : en:Chapter 16

pb.wtf



Скачать Пила 8 через торрент http://img12.lostpic.net/2018/01/16/f48cc41ce83ffb0ac72f4f6dd0c9865b.jpg Скачать фильм Пила 8 через торрент бесплантно в хорошем качестве Описание: В городе обнаруживают несколько тел, обладатели которых встретили определенно не лучший конец. Все улики указывают на одного ... 9.6 10 12
Info! Золотая раздача, скачанное не засчитывается.
Торрент: Зарегистрирован [2018-01-20 13:51] · скачан: 219 раз
Статус: √ проверено
Размер: 25.1 GB
Как cкачать? Как скачать Пила 8 через торрент | qTorrent

% Раздел Тема Автор DL S | L
Фильмы [HD 720p, 1080p] (Хороший звук DUB, MVO) [ 3.31 GB ] Пила 8 / Jigsaw [2017 BDRip-HEVC 1080p ] bober100 Скачать
1 | 0
Фильмы 2017 [DVDrip, WEB-DLRip, HDrip] (DUB, MVO) [ 2.19 GB ] Пила 8 / Jigsaw [2017 BDRip-AVC ] winchester00100010 Скачать
2 | 0
Фильмы 2017 [DVDrip, WEB-DLRip, HDrip] (DUB, MVO) [ 1.42 GB ] Пила 8 / Jigsaw [2017 BDRip] bober100 Скачать
2 | 0
Фильмы 2017 [DVDrip, WEB-DLRip, HDrip] (DUB, MVO) [ 1.47 GB ] Пила 8 / Jigsaw [2017 HDRip-AVC ] winchester00100010 Скачать
2 | 0
Фильмы 2017 [DVDrip, WEB-DLRip, HDrip] (DUB, MVO) [ 746 MB ] Пила 8 / Jigsaw [2017 HDRip] bober100 Скачать
1 | 0
Ultra HD (UHD: 2K, 4K, 8K) — видео сверхвысокой чёткости [ 50.97 GB ] Пила 8 / Jigsaw [2017 UHD BDRemux 2160p] AVO [А. Дольский] +DUB [Line] + bober100 Скачать
1 | 0
T Фильмы [HD 720p, 1080p] (Хороший звук DUB, MVO) [ 6.92 GB ] Пила 8 / Jigsaw [2017 BDRip 1080p] 2x killermax2013 Скачать
1 | 0

28-11-2019 20:33  

Отключить всю рекламу на сайте

    Дорогой пользователь! Огромная просьба, поблагодарите релизера, оцените раздачу и оставьте свои комментарий, если Вы скачали Пила 8 через торрент бесплатно! Внесите свою лепту в развитие PiratBit!
    Комментировать посты могут только пользователи прошедшие не сложную регистрацию
    Показать сообщения:    

    Пила 8 через торрент
    Скачать бесплатно Пила 8
    Пила 8 скачать торрент
    Пила 8 смотреть онлайн
    Cкачать фильм Пила 8 бесплатно
    Пила 8 скачать торрент в хорошем качестве
    Пила 8 смотреть онлайн бесплатно в хорошем качестве


    Вы не можете начинать темы
    Вы не можете отвечать на сообщения
    Вы не можете редактировать свои сообщения
    Вы не можете удалять свои сообщения
    Вы не можете голосовать в опросах
    Вы не можете прикреплять файлы к сообщениям
    Вы можете скачивать файлы