Всегда рабочее зеркало без VPN и Proxy просто перед .vidak.icu напиши любое слово или цифру, Пример http://yyci.vidak.icu

MVO

2 сезон

1 сезон

1

1 сезон

iTunes

2 сезон

13

1 сезон

Распродажа

pack

Рекомендуем

Пиратка

30

ВАЖНО

RePack

MK11

RePack

jed

RePack

fifa19

RePack

RDR2

RePack

NEED FOR SPEED™ PAYBACK

Кинопоиск HD

6 сезон

 Острые козырьки 6 сезон

Все сериалы

все сериалы на PB.wtf

RePack

FAR CRY 5

Anonymous, нам критически не хватает 5601 руб. на оплату серверов и переферии за Апрель, помоги нам пожалуйста, вся надежда только на тебя. В благодарность мы отключим тебе всю рекламу на сайте!

×
  
Magnet ссылка

Прочь / Get Out (Джордан Пил) [2017, Ужасы, детектив, UHD BDRemux 2160p] MVO [AlexFilm] +2xAVO [Яроцкий, Назаров] +DUB [Лицензия] pb.wtf

Прочь через торрент pb.wtf

Раздают: 1 [ 0 KB/s ]
Размер: 61.91 GB | Добавлен: 4 года 4 мес. назад | Торрент скачан:72 раза
Смотреть онлайн Прочь | Скачать    Ребята, помогите собрать деньги на оплату серверов!!!

20-01-2018 17:56 Прочь Скачать торрент  

Прочь / Get OutГод выпуска: 2017
Страна: США
Жанр: Ужасы, детектив
Продолжительность: 01:44:05

Перевод:

#1:Дублированный | Лицензия
#2: Профессиональный многоголосый | AlexFilm
#3:Авторский | Михаил Яроцкий (kyberpunk)
#4: :Авторский | Вадим Назаров

Субтитры: Русские, английские

Режиссер: Джордан Пил

rating

В ролях:

Дэниэл Калуя, Эллисон Уильямс, Кэтрин Кинер, Брэдли Уитфорд, Калеб Лэндри Джонс, Маркус Хендерсон, Бетти Гэбриел, Лейкит Стэнфилд, Стивен Рут, Лил Релл

Описание:

Один правильный темнокожий паренек полюбил белую девушку. А она отвезла его к своим родителям в уединенный дом колониального стиля на берегу живописного озера. Знакомство прошло просто замечательно. Папа оказался практикующим хирургом, а мама - не менее замечательным специалистом по промывке мозгов. Паренька буквально окружают заботой и вниманием милые, симпатичные господа из южной элиты, медленно сужая кольцо. Тем не менее, дорогого гостя начинают терзать смутные сомнения, плавно перетекающие в дискомфорт, душевные муки и боль


Качество: UHD BDRemux 2160p
Формат: MKV

Видео: MPEG-H HEVC HDR Video, 3840x2160, 67.8 Mbit/s, 23.976 fps
Аудио#1: 48 kHz, DTS, 5.1, 768 Kbps | Лицензия | RUS |
Аудио#2: 48 kHz, DTS-HD MA, 5.1, 3700 Kbps | AlexFilm | RUS |
Аудио#3: 48 kHz, DTS-HD MA, 5.1, 3687 Kbps | Kyberpunk | RUS |
Аудио#4: 48 kHz, DTS-HD MA, 5.1, 3672 Kbps | Назаров | RUS |
Аудио#5: 48 kHz, DTS-HD MA, 7.1, 5477 Kbps | Оригинал | ENG |
| ENG |
скриншот  скриншот  скриншот  скриншот  скриншот  

General
Unique ID : 52026984103172443428806682269677835221 (0x2724085C68A4D0A04F2A65D7B0D0D3D5)
Complete name : G:VideoSSDGet.Out.2017.BDREMUX.2160p.4K.UltraHD.HEVC.HDR.ExKinoRay.mkv
Format : Matroska
Format version : Version 4 / Version 2
File size : 61.9 GiB
Duration : 1 h 44 min
Overall bit rate : 85.2 Mb/s
Movie name : Get Out 2017 from ExKinoRay
Encoded date : UTC 2018-01-20 17:12:13
Writing application : mkvmerge v20.0.0 ('I Am The Sun') 64-bit
Writing library : libebml v1.3.5 + libmatroska v1.4.8

Video
ID : 1
Format : HEVC
Format/Info : High Efficiency Video Coding
Format profile : Main 10@L5.1@High
Codec ID : V_MPEGH/ISO/HEVC
Duration : 1 h 44 min
Bit rate : 67.8 Mb/s
Width : 3 840 pixels
Height : 2 160 pixels
Display aspect ratio : 16:9
Frame rate mode : Constant
Frame rate : 23.976 (24000/1001) FPS
Color space : YUV
Chroma subsampling : 4:2:0 (Type 2)
Bit depth : 10 bits
Bits/(Pixel*Frame) : 0.341
Stream size : 49.3 GiB (80%)
Language : English
Default : Yes
Forced : No
Color range : Limited
Color primaries : BT.2020
Transfer characteristics : PQ
Matrix coefficients : BT.2020 non-constant
Mastering display color pri : R: x=0.680000 y=0.320000, G: x=0.265000 y=0.690000, B: x=0.150000 y=0.060000, White point: x=0.312700 y=0.329000
Mastering display luminance : min: 0.0000 cd/m2, max: 1000.0000 cd/m2

Audio #1
ID : 2
Format : DTS
Format/Info : Digital Theater Systems
Codec ID : A_DTS
Duration : 1 h 44 min
Bit rate mode : Constant
Bit rate : 768 kb/s
Channel(s) : 6 channels
Channel positions : Front: L C R, Side: L R, LFE
Sampling rate : 48.0 kHz
Frame rate : 93.750 FPS (512 SPF)
Bit depth : 24 bits
Compression mode : Lossy
Stream size : 572 MiB (1%)
Title : Dub [License]
Language : Russian
Default : Yes
Forced : No

Audio #2
ID : 3
Format : DTS
Format/Info : Digital Theater Systems
Format profile : MA / Core
Codec ID : A_DTS
Duration : 1 h 44 min
Bit rate mode : Variable / Constant
Bit rate : 3 700 kb/s / 1 509 kb/s
Channel(s) : 6 channels
Channel positions : Front: L C R, Side: L R, LFE
Sampling rate : 48.0 kHz
Frame rate : 93.750 FPS (512 SPF)
Bit depth : 24 bits
Compression mode : Lossless / Lossy
Stream size : 2.69 GiB (4%)
Title : MVO [AlexFilm]
Language : Russian
Default : No
Forced : No

Audio #3
ID : 4
Format : DTS
Format/Info : Digital Theater Systems
Format profile : MA / Core
Codec ID : A_DTS
Duration : 1 h 44 min
Bit rate mode : Variable / Constant
Bit rate : 3 687 kb/s / 1 509 kb/s
Channel(s) : 6 channels
Channel positions : Front: L C R, Side: L R, LFE
Sampling rate : 48.0 kHz
Frame rate : 93.750 FPS (512 SPF)
Bit depth : 24 bits
Compression mode : Lossless / Lossy
Stream size : 2.68 GiB (4%)
Title : AVO [Jarockij]
Language : Russian
Default : No
Forced : No

Audio #4
ID : 5
Format : DTS
Format/Info : Digital Theater Systems
Format profile : MA / Core
Codec ID : A_DTS
Duration : 1 h 44 min
Bit rate mode : Variable / Constant
Bit rate : 3 672 kb/s / 1 509 kb/s
Channel(s) : 6 channels
Channel positions : Front: L C R, Side: L R, LFE
Sampling rate : 48.0 kHz
Frame rate : 93.750 FPS (512 SPF)
Bit depth : 24 bits
Compression mode : Lossless / Lossy
Stream size : 2.67 GiB (4%)
Title : AVO [Nazarov]
Language : Russian
Default : No
Forced : No

Audio #5
ID : 6
Format : DTS
Format/Info : Digital Theater Systems
Format profile : X / MA / Core
Codec ID : A_DTS
Duration : 1 h 44 min
Bit rate mode : Variable / Variable / Constant
Bit rate : 5 477 kb/s / 5 477 kb/s / 1 509 kb/s
Channel(s) : Object Based / 8 channels / 6 channels
Channel positions : Object Based / Front: L C R, Side: L R, Back: L R, LFE / Front: L C R, Side: L R, LFE
Sampling rate : / 48.0 kHz / 48.0 kHz
Frame rate : 93.750 FPS (512 SPF)
Bit depth : / 24 bits / 24 bits
Compression mode : / Lossless / Lossy
Stream size : 3.98 GiB (6%)
Title : Original
Language : English
Default : No
Forced : No

Text #1
ID : 7
Format : UTF-8
Codec ID : S_TEXT/UTF8
Codec ID/Info : UTF-8 Plain Text
Duration : 1 h 34 min
Bit rate : 0 b/s
Count of elements : 10
Stream size : 428 Bytes (0%)
Title : Forced
Language : Russian
Default : Yes
Forced : No

Text #2
ID : 8
Format : UTF-8
Codec ID : S_TEXT/UTF8
Codec ID/Info : UTF-8 Plain Text
Duration : 1 h 38 min
Bit rate : 78 b/s
Count of elements : 1190
Stream size : 56.5 KiB (0%)
Title : Full [License]
Language : Russian
Default : No
Forced : No

Text #3
ID : 9
Format : UTF-8
Codec ID : S_TEXT/UTF8
Codec ID/Info : UTF-8 Plain Text
Duration : 1 h 38 min
Bit rate : 50 b/s
Count of elements : 1232
Stream size : 36.3 KiB (0%)
Title : Full
Language : English
Default : No
Forced : No

Text #4
ID : 10
Format : UTF-8
Codec ID : S_TEXT/UTF8
Codec ID/Info : UTF-8 Plain Text
Duration : 1 h 38 min
Bit rate : 54 b/s
Count of elements : 1413
Stream size : 39.5 KiB (0%)
Title : SDH
Language : English
Default : No
Forced : No

Text #5
ID : 11
Format : UTF-8
Codec ID : S_TEXT/UTF8
Codec ID/Info : UTF-8 Plain Text
Duration : 1 h 38 min
Bit rate : 65 b/s
Count of elements : 1413
Stream size : 47.7 KiB (0%)
Title : SDH Colored
Language : English
Default : No
Forced : No

Menu
00:00:00.000 : en:00:00:00.000
00:04:52.834 : en:00:04:52.834
00:10:13.530 : en:00:10:13.530
00:14:02.258 : en:00:14:02.258
00:19:07.480 : en:00:19:07.480
00:21:49.433 : en:00:21:49.433
00:26:07.357 : en:00:26:07.357
00:30:51.016 : en:00:30:51.016
00:37:19.487 : en:00:37:19.487
00:42:16.868 : en:00:42:16.868
00:48:03.172 : en:00:48:03.172
00:54:13.584 : en:00:54:13.584
00:57:38.288 : en:00:57:38.288
01:03:33.810 : en:01:03:33.810
01:10:48.911 : en:01:10:48.911
01:15:36.365 : en:01:15:36.365
01:22:02.543 : en:01:22:02.543
01:26:13.418 : en:01:26:13.418
01:32:24.414 : en:01:32:24.414
01:40:22.391 : en:01:40:22.391

pb.wtf



Скачать Прочь через торрент http://img12.lostpic.net/2018/01/20/1f8c1567d0d606030460e3f7b49e9bb8.jpg Скачать, смотреть онлайн Прочь бесплантно в хорошем качестве Описание: Один правильный темнокожий паренек полюбил белую девушку. А она отвезла его к своим родителям в уединенный дом колониального ... 8.7 10 6
Торрент: Зарегистрирован [2018-01-20 17:56] · скачан: 72 раз
Статус: √ проверено
Размер: 61.91 GB
Как cкачать? Как скачать Прочь через торрент | UTorrent

% Раздел Тема Автор DL S | L
Фильмы с авторской озвучкой [ 1.47 GB ] Прочь / Get Out [2017 BDRip] [AVO] killermax2013 Скачать
1 | 0
Фильмы до 2000 г. [ 934 MB ] Укуренные 7 / Прочь из моей комнаты! / Get Out of My Room [1985 музыка DVDRip] VO killermax2013 Скачать
1 | 0
Фильмы (Blu-ray, BD-Remux, HDDVD) [ 39.65 GB ] Прочь / Get Out [2017 Blu-Ray CEE 1080p] Russian Mafia Скачать
1 | 0
Фильмы [HD 720p, 1080p] (Хороший звук DUB, MVO) [ 2.36 GB ] Прочь / Get Out [2017 BDRip 1080p HEVC ()] Мичман37 Скачать
1 | 0
Ultra HD (UHD: 2K, 4K, 8K) — видео сверхвысокой чёткости [ 12.57 GB ] Прочь / Get Out [2017 UHD BDRip 2160p] DUB + MVO [AlexFilm] + AVO [M. Яроцкий] sheker187 Скачать
2 | 0
R.G. Resident & PiratVoice - Фильмы, Видео [ 5.65 GB ] Прочь / Get Out [2017 BDRip 720p] - + MVO + AVO - R.G.Resident Хорват Скачать
1 | 0
Фильмы 2017 [DVDrip, WEB-DLRip, HDrip] (DUB, MVO) [ 1.46 GB ] Прочь / Get Out [2017 BDRip-AVC от sokol_ok] sokol_ok Скачать
2 | 0

28-11-2019 20:33  

Отключить всю рекламу на сайте

21-01-2018 10:55 Прочь Скачать торрент  

в BDRemux 1080 можно?pb.wtf



    Дорогой пользователь! Огромная просьба, поблагодарите релизера, оцените раздачу и оставьте свои комментарий, если Вы скачали Прочь через торрент бесплатно!
    Комментировать посты могут только пользователи прошедшие не сложную регистрацию
    Показать сообщения:    

    Прочь через торрент
    Скачать бесплатно Прочь
    Прочь скачать торрент
    Прочь смотреть онлайн
    Cкачать фильм Прочь бесплатно
    Прочь скачать торрент в хорошем качестве
    Прочь смотреть онлайн бесплатно в хорошем качестве


    Вы не можете начинать темы
    Вы не можете отвечать на сообщения
    Вы не можете редактировать свои сообщения
    Вы не можете удалять свои сообщения
    Вы не можете голосовать в опросах
    Вы не можете прикреплять файлы к сообщениям
    Вы можете скачивать файлы