Достать ножи: Стеклянная луковица

MVO

Добыча

Дубляж

Уэнсдэй

1 сезон

Тор

Дубляж

13 клиническая

1 сезон

Жестокая ночь

MVO

Одни из нас

1 сезон

Deluxe

pack

Рекомендуем

30

Пиратка

ВАЖНО

ВАЖНО

Ghostwire

Пиратка

jed

RePack

nioh2

RePack

RDR2

RePack

NEED FOR SPEED™ PAYBACK

RePack

скачать торрент

Кинопоиск HD

Острые козырьки 6 сезон

6 сезон

FAR CRY 6

RePack

скачать торрент

Лицензия

скачать торрент

MVO

1

1 сезон

скачать торрент

1 сезон

скачать торрент

Лицензия

  

Четвёртый вид / The Fourth Kind (Олатунде Осунсанми) [2009, ужасы, фантастика, триллер, BDRip 720p] [60FPS] [Дубляж]

Четвёртый вид через торрент pb.wtf

Качают: 1 [ 0 KB/s ]
Размер: 4.76 GB | Добавлен: 5 лет назад | Торрент скачан:361 раз
Смотреть онлайн | Скачать | Поддержите нас   

20-01-2018 20:31 Четвёртый вид Скачать торрент  

Четвёртый вид / The Fourth Kind
««There are four kinds of alien encounters. The fourth kind is abduction»»

Год выпуска: 2009
Страна: США, Великобритания
Жанр: ужасы, фантастика, триллер, детектив
Продолжительность: 01:38:00
Перевод: Профессиональный (дублированный)
Субтитры:Russian (UTF-8), English (UTF-8)
Режиссер: Олатунде Осунсанми
В ролях:

Милла Йовович (Abbey Tyler), Уилл Пэттон (Sheriff August), Хаким Кае-Казим (Awolowa Odusami), Кори Джонсон (Tommy Fisher), Энцо Чиленти (Scott Stracinsky), Элиас Котеас (Abel Campos), Эрик Лорен (Deputy Ryan), Мия МакКенна-Брюс (Ashley Tyler), Рафаэль Коулмэн (Ronnie Tyler), Дафна Александр (Theresa), Алиша Ситон (Cindy Stracinski), Тайн Рафаэли (Sarah Fisher)
Описание:
На территории Аляски происходят необъяснимые исчезновения людей. Несмотря на все усилия ФБР, расследования зашли в тупик, и тайна, по-прежнему, не раскрыта. Психиатр Эбигейл Тайлер начинает записывать на видео беседы со своими пациентами и обнаруживает нечто очень страшное и пугающе...
Мировая премьера: 24 октября 2009
rating

Релиз от:
Качество: BDRip 720p [60FPS]
Формат: MKV
Видео кодек: AVC
Аудио кодек: AC3
Видео: AVC, 1280x544 (2.35:1), 5862 kbps, 59,940 fps, 0,140 bpp
Аудио №1: AC3 / 5.1 / 48 kHz / 448 kbps |Русский
Аудио №2: AC3 / 5.1 / 48 kHz / 448 kbps |Английский
Аудио №3: AC3 / 2.0 / 48 kHz / 192 kbps |Английский
Навигация по главам: есть
Format : Matroska
Format version : Version 4 / Version 2
File size : 4.76 GiB
Duration : 1 h 38 min
Overall bit rate : 6 955 kb/s
Movie name : Четвертый вид / The Fourth Kind (2009)byWSM[60fps]
Encoded date : UTC 2018-01-20 20:04:46
Writing application : mkvmerge v20.0.0 ('I Am The Sun') 64-bit
Writing library : libebml v1.3.5 + libmatroska v1.4.8

Video
ID : 1
Format : AVC
Format/Info : Advanced Video Codec
Format profile : [email protected]
Format settings, CABAC : Yes
Format settings, ReFrames : 5 frames
Codec ID : V_MPEG4/ISO/AVC
Duration : 1 h 38 min
Bit rate : 5 862 kb/s
Width : 1 280 pixels
Height : 544 pixels
Display aspect ratio : 2.35:1
Frame rate mode : Constant
Frame rate : 59.940 (59940/1000) FPS
Original frame rate : 59.940 (60000/1001) FPS
Color space : YUV
Chroma subsampling : 4:2:0
Bit depth : 8 bits
Scan type : Progressive
Bits/(Pixel*Frame) : 0.140
Stream size : 4.01 GiB (84%)
Writing library : x264 core 148 r2638 7599210
Encoding settings : cabac=1 / ref=5 / deblock=1:0:0 / analyse=0x3:0x113 / me=umh / subme=8 / psy=1 / psy_rd=1.00:0.00 / mixed_ref=1 / me_range=16 / chroma_me=1 / trellis=1 / 8x8dct=1 / cqm=0 / deadzone=21,11 / fast_pskip=1 / chroma_qp_offset=-2 / threads=6 / lookahead_threads=1 / sliced_threads=0 / nr=0 / decimate=1 / interlaced=0 / bluray_compat=0 / constrained_intra=0 / bframes=3 / b_pyramid=2 / b_adapt=2 / b_bias=0 / direct=3 / weightb=1 / open_gop=0 / weightp=2 / keyint=599 / keyint_min=59 / scenecut=40 / intra_refresh=0 / rc_lookahead=50 / rc=crf / mbtree=1 / crf=14.0 / qcomp=0.60 / qpmin=0 / qpmax=69 / qpstep=4 / ip_ratio=1.40 / aq=1:1.00
Language : Russian
Default : Yes
Forced : No

Audio #1
ID : 2
Format : AC-3
Format/Info : Audio Coding 3
Mode extension : CM (complete main)
Format settings, Endianness : Big
Codec ID : A_AC3
Duration : 1 h 38 min
Bit rate mode : Constant
Bit rate : 448 kb/s
Channel(s) : 6 channels
Channel positions : Front: L C R, Side: L R, LFE
Sampling rate : 48.0 kHz
Frame rate : 31.250 FPS (1536 spf)
Compression mode : Lossy
Stream size : 314 MiB (6%)
Title : Дубляж
Language : Russian
Default : Yes
Forced : Yes

Audio #2
ID : 3
Format : AC-3
Format/Info : Audio Coding 3
Mode extension : CM (complete main)
Format settings, Endianness : Big
Codec ID : A_AC3
Duration : 1 h 38 min
Bit rate mode : Constant
Bit rate : 448 kb/s
Channel(s) : 6 channels
Channel positions : Front: L C R, Side: L R, LFE
Sampling rate : 48.0 kHz
Frame rate : 31.250 FPS (1536 spf)
Compression mode : Lossy
Stream size : 314 MiB (6%)
Language : English
Default : No
Forced : No

Audio #3
ID : 4
Format : AC-3
Format/Info : Audio Coding 3
Format profile : Dolby Digital
Mode extension : CM (complete main)
Format settings, Endianness : Big
Codec ID : A_AC3
Duration : 1 h 38 min
Bit rate mode : Constant
Bit rate : 192 kb/s
Channel(s) : 2 channels
Channel positions : Front: L R
Sampling rate : 48.0 kHz
Frame rate : 31.250 FPS (1536 spf)
Compression mode : Lossy
Stream size : 135 MiB (3%)
Title : Commentary
Language : English
Default : No
Forced : No

Text #1
ID : 5
Format : UTF-8
Codec ID : S_TEXT/UTF8
Codec ID/Info : UTF-8 Plain Text
Duration : 1 h 31 min
Bit rate : 97 b/s
Count of elements : 1182
Stream size : 65.7 KiB (0%)
Language : Russian
Default : No
Forced : No

Text #2
ID : 6
Format : UTF-8
Codec ID : S_TEXT/UTF8
Codec ID/Info : UTF-8 Plain Text
Duration : 1 h 36 min
Bit rate : 64 b/s
Count of elements : 1485
Stream size : 46.0 KiB (0%)
Language : English
Default : No
Forced : No

Menu
00:00:00.000 : en:00:00:00.000
00:01:42.227 : en:00:01:42.227
00:08:16.705 : en:00:08:16.705
00:13:53.207 : en:00:13:53.207
00:19:54.777 : en:00:19:54.777
00:24:25.297 : en:00:24:25.297
00:28:32.961 : en:00:28:32.961
00:33:37.474 : en:00:33:37.474
00:36:56.756 : en:00:36:56.756
00:43:03.498 : en:00:43:03.498
00:47:29.680 : en:00:47:29.680
00:52:42.576 : en:00:52:42.576
00:56:45.444 : en:00:56:45.444
01:01:00.782 : en:01:01:00.782
01:05:16.454 : en:01:05:16.454
01:09:48.351 : en:01:09:48.351
01:14:15.242 : en:01:14:15.242
01:20:38.375 : en:01:20:38.375
01:27:30.537 : en:01:27:30.537
01:32:21.369 : en:01:32:21.369



Скачать Четвёртый вид через торрент http://lostpix.com/img/2018-01/20/a898teki1e30dpstpr5l3pu7q.png Скачать, смотреть онлайн Четвёртый вид бесплантно в хорошем качестве Описание: На территории Аляски происходят необъяснимые исчезновения людей. Несмотря на все усилия ФБР, расследования зашли в тупик, и ... 9.3 10 16
Info! Золотая раздача, скачанное не засчитывается.
Торрент: Зарегистрирован [2018-01-20 20:31] · скачан: 361 раз
Статус: √ проверено
Размер: 4.76 GB
Как cкачать? Как скачать Четвёртый вид через торрент | UTorrent

% Раздел Тема Автор DL S | L
Фильмы 2009 [ 2.48 GB ] Четвёртый вид / The Fourth Kind | Лицензия | BDRip Леонид Ильич Скачать
1 | 0
Фильмы [HD 720p, 1080p] (Хороший звук DUB, MVO) [ 4.67 GB ] Четвертый вид / The Fourth Kind | | 720p. diletant Скачать
1 | 0
Фильмы [HD 720p, 1080p] (Хороший звук DUB, MVO) [ 4.67 GB ] Четвёртый вид / The Fourth Kind | Дубляж | BDRip, Дубляж VintMosina Скачать
1 | 0
Фильмы 2009 [ 1.36 GB ] Четвертый вид / The Fourth Kind | | HDRip SD Скачать
1 | 0
Фильмы 2009 [ 1.31 GB ] Четвёртый вид / Fourth Kind, The | | DVDRip, лицензия kuvagen Скачать
1 | 1
Фильмы 2009 [ 695 MB ] Четвертый вид / The Fourth Kind | | DVDRip SD Скачать
1 | 0
Фильмы 2009 [ 1.37 GB ] Четвертый вид / The Fourth Kind | | Четвертый вид / The Fourth Kind (Олатунде Осунсанми SD Скачать
1 | 0



Последний раз редактировалось: WorldSM (2018-01-24 12:23), всего редактировалось 1 раз

28-11-2019 20:33  


Отключить вcю реклaмy на сайте, в т.ч. и в плеере онлайн просмотра!

20-01-2018 21:18 Четвёртый вид Скачать торрент  

Также не забываем оставлять отзывы)



21-01-2018 09:12 Четвёртый вид Скачать торрент  

Фильм супер! Смотрел ночью, потом уснуть не мог, пока не погуглил про сценарий.



21-01-2018 15:49 Четвёртый вид Скачать торрент  

посмотрю только из-за Милы



    Дорогой пользователь! Огромная просьба, поблагодарите релизера, оцените раздачу и оставьте свои комментарий, если Вы скачали Четвёртый вид через торрент бесплатно!!
    Комментировать посты могут только пользователи прошедшие не сложную регистрацию
    Показать сообщения:    


    Четвёртый вид через торрент
    Скачать бесплатно Четвёртый вид
    Четвёртый вид скачать торрент
    Четвёртый вид смотреть онлайн
    Cкачать фильм Четвёртый вид бесплатно
    Четвёртый вид скачать торрент в хорошем качестве
    Четвёртый вид смотреть онлайн бесплатно в хорошем качестве
    Вы не можете начинать темы
    Вы не можете отвечать на сообщения
    Вы не можете редактировать свои сообщения
    Вы не можете удалять свои сообщения
    Вы не можете голосовать в опросах
    Вы не можете прикреплять файлы к сообщениям
    Вы можете скачивать файлы
    Четвёртый вид / The Fourth Kind [2009, ужасы, фантастика, триллер, BDRip 720p] [60FPS] [Дубляж] смотреть онлайн, скачать торрент picoco.icu