2 сезон

iTunes

MVO

1

2 сезон

iTunes

iTunes

1 сезон

RePack

30

Ultimate

ВАЖНО

ИГРА 18+

pack

RePack

MK11
pack

Легкие деньги

RePack

jed

RePack

fifa19

RePack

RDR2

RePack

NEED FOR SPEED™ PAYBACK

4 сезон

9 сезон

Бесстыжие 9 сезон

Все сериалы

все сериалы на PB.wtf

RePack

FAR CRY 5

Anonymous, добрый вечер, мы не успеваем собрать деньги на оплату серверов за декабрь и январь, помогите нам пожалуйста в это трудное время. В качестве благодарности мы отключим Вам всю рекламу на сайте (укажите свой ник в строку Ваше имя)!

×
  
Magnet ссылка

Пила 8 / Jigsaw (Майкл Спириг, Питер Спириг) [2017, Ужасы, триллер, криминал, детектив, BDRip 720p] DUB [60FPS] pb.wtf

Пила 8 через торрент pb.wtf

Размер: 3.5 GB | Добавлен: 3 года назад | Торрент скачан:528 раз
Скачать  

21-01-2018 03:35 Пила 8 Скачать торрент  

Пила 8 / Jigsaw
««Are you worthy?»»

Год выпуска: 2017
Страна: США, Канада
Жанр: ужасы, триллер, криминал, детектив
Продолжительность: 01:31:56
Перевод: Профессиональный (дублированный)
Субтитры:English (UTF-8)
Режиссер: Майкл Спириг, Питер Спириг
В ролях:

Мэтт Пассмор (Logan Nelson), Тобин Белл (Jigsaw / John Kramer), Каллум Кит Ренни (Detective Halloran), Ханна Андерсон (Eleanor Bonneville), Кле Беннетт (Detective Keith Hunt), Лора Вандервурт (Anna), Пол Браунштейн (Ryan), Мандела Ван Пиблз (Mitch), Бриттани Аллен (Carly), Джозиа Блэк (Edgar Munsen), Эдвард Раттл (Matt), Майкл Бойсверт (Lee James)
Описание:
В городе обнаруживают несколько тел, обладатели которых встретили определенно не лучший конец. Все улики указывают на одного человека: Джона Крамера. Но как это возможно? Человек, известный как Пила, мертв уже более десяти лет. Неужели все-таки нашелся тот, кто рискнул подобрать мантию жестокого маньяка?
Мировая премьера: 26 октября 2017
rating

Релиз от:
Качество: BDRip 720p [60FPS]
Формат: MKV
Видео кодек: AVC
Аудио кодек: AC3
Видео: AVC, 1280x536 (2.40:1), 4415 kbps, 59,940 fps, 0,107 bpp
Аудио №1: AC3 / 5.1 / 48 kHz / 384 kbps |Русский
Аудио №2: AC3 / 5.1 / 48 kHz / 640 kbps |Английский
Навигация по главам: есть
General
Unique ID : 153501412314550675130988208549822347130 (0x737B4BF12378E4A24F6A7BC32ED2377A)
Format : Matroska
Format version : Version 4 / Version 2
File size : 3.50 GiB
Duration : 1 h 31 min
Overall bit rate : 5 444 kb/s
Movie name : Jigsaw 2017byWSM[60FPS]
Encoded date : UTC 2018-01-21 03:11:08
Writing application : mkvmerge v20.0.0 ('I Am The Sun') 64-bit
Writing library : libebml v1.3.5 + libmatroska v1.4.8

Video
ID : 1
Format : AVC
Format/Info : Advanced Video Codec
Format profile : High@L3.2
Format settings, CABAC : Yes
Format settings, ReFrames : 5 frames
Codec ID : V_MPEG4/ISO/AVC
Duration : 1 h 31 min
Bit rate : 4 415 kb/s
Width : 1 280 pixels
Height : 536 pixels
Display aspect ratio : 2.40:1
Frame rate mode : Constant
Frame rate : 59.940 (59940/1000) FPS
Original frame rate : 59.940 (60000/1001) FPS
Color space : YUV
Chroma subsampling : 4:2:0
Bit depth : 8 bits
Scan type : Progressive
Bits/(Pixel*Frame) : 0.107
Stream size : 2.84 GiB (81%)
Writing library : x264 core 148 r2638 7599210
Encoding settings : cabac=1 / ref=5 / deblock=1:0:0 / analyse=0x3:0x113 / me=umh / subme=8 / psy=1 / psy_rd=1.00:0.00 / mixed_ref=1 / me_range=16 / chroma_me=1 / trellis=1 / 8x8dct=1 / cqm=0 / deadzone=21,11 / fast_pskip=1 / chroma_qp_offset=-2 / threads=6 / lookahead_threads=1 / sliced_threads=0 / nr=0 / decimate=1 / interlaced=0 / bluray_compat=0 / constrained_intra=0 / bframes=3 / b_pyramid=2 / b_adapt=2 / b_bias=0 / direct=3 / weightb=1 / open_gop=0 / weightp=2 / keyint=599 / keyint_min=59 / scenecut=40 / intra_refresh=0 / rc_lookahead=50 / rc=crf / mbtree=1 / crf=14.0 / qcomp=0.60 / qpmin=0 / qpmax=69 / qpstep=4 / ip_ratio=1.40 / aq=1:1.00
Default : Yes
Forced : No

Audio #1
ID : 2
Format : AC-3
Format/Info : Audio Coding 3
Mode extension : CM (complete main)
Format settings, Endianness : Big
Codec ID : A_AC3
Duration : 1 h 31 min
Bit rate mode : Constant
Bit rate : 384 kb/s
Channel(s) : 6 channels
Channel positions : Front: L C R, Side: L R, LFE
Sampling rate : 48.0 kHz
Frame rate : 31.250 FPS (1536 spf)
Compression mode : Lossy
Stream size : 253 MiB (7%)
Title : iTunes
Language : Russian
Default : Yes
Forced : No

Audio #2
ID : 3
Format : AC-3
Format/Info : Audio Coding 3
Mode extension : CM (complete main)
Format settings, Endianness : Big
Codec ID : A_AC3
Duration : 1 h 31 min
Bit rate mode : Constant
Bit rate : 640 kb/s
Channel(s) : 6 channels
Channel positions : Front: L C R, Side: L R, LFE
Sampling rate : 48.0 kHz
Frame rate : 31.250 FPS (1536 spf)
Compression mode : Lossy
Stream size : 421 MiB (12%)
Title : Original
Language : English
Default : No
Forced : No

Text
ID : 4
Format : UTF-8
Codec ID : S_TEXT/UTF8
Codec ID/Info : UTF-8 Plain Text
Duration : 1 h 24 min
Bit rate : 53 b/s
Count of elements : 1146
Stream size : 32.9 KiB (0%)
Title : Full
Language : English
Default : No
Forced : No

Menu
00:00:00.000 : en:00:00:00.000
00:03:46.977 : en:00:03:46.977
00:10:39.848 : en:00:10:39.848
00:14:09.974 : en:00:14:09.974
00:22:39.608 : en:00:22:39.608
00:29:03.408 : en:00:29:03.408
00:35:18.533 : en:00:35:18.533
00:40:38.519 : en:00:40:38.519
00:43:09.212 : en:00:43:09.212
00:46:12.353 : en:00:46:12.353
00:52:00.743 : en:00:52:00.743
00:56:34.224 : en:00:56:34.224
01:04:13.850 : en:01:04:13.850
01:09:17.570 : en:01:09:17.570
01:13:33.284 : en:01:13:33.284
01:23:31.089 : en:01:23:31.089
pb.wtf



Скачать Пила 8 через торрент http://lostpix.com/img/2018-01/21/1tgslqie0yi7ajywpzud2x3l6.png Скачать фильм Пила 8 через торрент бесплантно в хорошем качестве Описание: В городе обнаруживают несколько тел, обладатели которых встретили определенно не лучший конец. Все улики указывают на одного ... 9.1 10 15
Info! Золотая раздача, скачанное не засчитывается.
Торрент: Зарегистрирован [2018-01-21 03:35] · скачан: 528 раз
Статус: √ проверено
Размер: 3.5 GB
Как cкачать? Как скачать Пила 8 через торрент | UTorrent

% Раздел Тема Автор DL S | L
Фильмы [HD 720p, 1080p] (Хороший звук DUB, MVO) [ 3.31 GB ] Пила 8 / Jigsaw [2017 BDRip-HEVC 1080p ] bober100 Скачать
2 | 0
Фильмы 2017 [DVDrip, WEB-DLRip, HDrip] (DUB, MVO) [ 2.19 GB ] Пила 8 / Jigsaw [2017 BDRip-AVC ] winchester00100010 Скачать
1 | 0
Фильмы 2017 [DVDrip, WEB-DLRip, HDrip] (DUB, MVO) [ 1.42 GB ] Пила 8 / Jigsaw [2017 BDRip] bober100 Скачать
1 | 0
Фильмы 2017 [DVDrip, WEB-DLRip, HDrip] (DUB, MVO) [ 1.47 GB ] Пила 8 / Jigsaw [2017 HDRip-AVC ] winchester00100010 Скачать
1 | 0
Фильмы 2017 [DVDrip, WEB-DLRip, HDrip] (DUB, MVO) [ 746 MB ] Пила 8 / Jigsaw [2017 HDRip] bober100 Скачать
1 | 0
Ultra HD (UHD: 2K, 4K, 8K) — видео сверхвысокой чёткости [ 50.97 GB ] Пила 8 / Jigsaw [2017 UHD BDRemux 2160p] AVO [А. Дольский] +DUB [Line] + bober100 Скачать
1 | 0
T Фильмы [HD 720p, 1080p] (Хороший звук DUB, MVO) [ 6.92 GB ] Пила 8 / Jigsaw [2017 BDRip 1080p] 2x killermax2013 Скачать
1 | 0


Последний раз редактировалось: WorldSM (2018-01-24 12:23), всего редактировалось 3 раз(а)

28-11-2019 20:33  

Отключить всю рекламу на сайте

21-01-2018 03:54 Пила 8 Скачать торрент  

Также не забываем оставлять отзывы)pb.wtf



21-01-2018 08:59 Пила 8 Скачать торрент  

Спасибо за релиЗ, пожалуй лучшее кино, из всех что видел, за последние лет пять!pb.wtf



21-01-2018 15:25 Пила 8 Скачать торрент  

Спасибо большое!pb.wtf



    Дорогой пользователь! Огромная просьба, поблагодарите релизера, оцените раздачу и оставьте свои комментарий, если Вы скачали Пила 8 через торрент бесплатно! Внесите свою лепту в развитие PiratBit!
    Комментировать посты могут только пользователи прошедшие не сложную регистрацию
    Показать сообщения:    

    Пила 8 через торрент
    Скачать бесплатно Пила 8
    Пила 8 скачать торрент
    Пила 8 смотреть онлайн
    Cкачать фильм Пила 8 бесплатно
    Пила 8 скачать торрент в хорошем качестве
    Пила 8 смотреть онлайн бесплатно в хорошем качестве


    Вы не можете начинать темы
    Вы не можете отвечать на сообщения
    Вы не можете редактировать свои сообщения
    Вы не можете удалять свои сообщения
    Вы не можете голосовать в опросах
    Вы не можете прикреплять файлы к сообщениям
    Вы можете скачивать файлы