Ссылка на приватное зеркало нашего сайта всего за 1$. Внимание количество ограничено!!!

2 сезон

iTunes

1 сезон

1

2 сезон

2 сезон

iTunes

1 сезон

RePack

30

Новинка

ВАЖНО

ИГРА 18+

pack

RePack

MK11
pack

Забери бонус

RePack

jed

!!Акция!!

Alien_Rage

RePack

fifa19

RePack

Assassins Creed: Odyssey

RePack

NEED FOR SPEED™ PAYBACK

4 сезон

9 сезон

Бесстыжие 9 сезон

Все сериалы

все сериалы на PB.wtf

RePack

FAR CRY 5
  

Ординатор / The Resident / Сезон: 1 / Серии: 1-14 из 14 (Роб Корн, Билл Д’Элиа, Филлип Нойс) [2018, Драма, WEB-DL 720p] MVO [NewStudio] pb.wtf

Ординатор через торрент pb.wtf

Размер: 21.1 GB | Добавлен: 2 года 6 мес. назад | Торрент скачан:19 раз
Скачать  

21-01-2018 04:57 Ординатор Скачать торрент  

Ординатор / The ResidentГод выпуска: 2018
Страна: США
Жанр: Драма
Продолжительность: ~ 00:46:00
Перевод: Профессиональный многоголосый |
Субтитры: Русские

Режиссер: Роб Корн, Билл Д’Элиа, Филлип Нойс

rating

В ролях:

Мэтт Зукри, Эмили ВанКэмп, Мелина Канакаридис, Ван Мартен, Маниш Дайал, Тассо Фельдман, Джессика Мизел, Винс Фостер, Элизабет Лудлоу, Кэролайн Фридлюнд

Описание:

Сериал рассказывает о молодом враче с идеалистическими взглядами на жизнь, который начинает работать под началом блестящего и более опытного врача. Со временем главный герой понимает, что не всё так просто, и в его работе есть сотня нюансов, на которые невозможно закрыть глаза.

Качество: WEB-DL 720p
Формат: MKV

Видео: MPEG-4 AVC, ~ 4 000 Кбит/с, 1280x720
Аудио#1: Русский (AC3, 6 ch, 384 Кбит/с)
Аудио#2: английский (AC3, 6 ch, 384 Кбит/с)
скриншот  скриншот  скриншот  

Общее
Уникальный идентификатор : 99765629041538859038283719887170658806 (0x4B0E2946F86E3D9EA55C851F903D61F6)
Полное имя : F:\Ординатор\The.Resident.s01e01.WEBDL.720p.NewStudio.TV.mkv
Формат : Matroska
Версия формата : Version 4 / Version 2
Размер файла : 1,51 Гбайт
Продолжительность : 44 м. 50 с.
Общий поток : 4824 Кбит/сек
Дата кодирования : UTC 2018-01-22 14:28:38
Программа кодирования : mkvmerge v20.0.0 ('I Am The Sun') 64-bit
Библиотека кодирования : libebml v1.3.5 + libmatroska v1.4.8

Видео
Идентификатор : 1
Формат : AVC
Формат/Информация : Advanced Video Codec
Профиль формата : High@L3.1
Параметр CABAC формата : Нет
Параметр ReFrames формата : 2 кадра
Идентификатор кодека : V_MPEG4/ISO/AVC
Продолжительность : 44 м. 50 с.
Битрейт : 3960 Кбит/сек
Ширина : 1280 пикселей
Высота : 720 пикселей
Соотношение сторон : 16:9
Режим частоты кадров : Постоянный
Частота кадров : 23,976 (24000/1001) кадра/сек
Цветовое пространство : YUV
Субдискретизация насыщенности : 4:2:0
Битовая глубина : 8 бит
Тип развёртки : Прогрессивная
Бит/(Пиксели*Кадры) : 0.179
Размер потока : 1,24 Гбайт (82%)
Язык : English
Default : Да
Forced : Нет
Цветовой диапазон : Limited
Основные цвета : BT.709
Характеристики трансфера : BT.709
Коэффициенты матрицы : BT.709

Аудио #1
Идентификатор : 2
Формат : AC-3
Формат/Информация : Audio Coding 3
Расширение режима : CM (complete main)
Параметр Endianness формата : Big
Идентификатор кодека : A_AC3
Продолжительность : 44 м. 50 с.
Вид битрейта : Постоянный
Битрейт : 384 Кбит/сек
Каналы : 6 каналов
Расположение каналов : Front: L C R, Side: L R, LFE
Частота : 48,0 КГц
Частота кадров : 31,250 кадров/сек (1536 spf)
Метод сжатия : С потерями
Задержка видео : -42 мс.
Размер потока : 123 Мбайт (8%)
Заголовок : NewStudio.TV
Язык : Russian
Default : Да
Forced : Нет

Аудио #2
Идентификатор : 3
Формат : AC-3
Формат/Информация : Audio Coding 3
Расширение режима : CM (complete main)
Параметр Endianness формата : Big
Идентификатор кодека : A_AC3
Продолжительность : 44 м. 50 с.
Вид битрейта : Постоянный
Битрейт : 384 Кбит/сек
Каналы : 6 каналов
Расположение каналов : Front: L C R, Side: L R, LFE
Частота : 48,0 КГц
Частота кадров : 31,250 кадров/сек (1536 spf)
Метод сжатия : С потерями
Задержка видео : -42 мс.
Размер потока : 123 Мбайт (8%)
Язык : English
Default : Нет
Forced : Нет

Текст
Идентификатор : 4
Формат : ASS
Идентификатор кодека : S_TEXT/ASS
Идентификатор кодека/Информация : Advanced Sub Station Alpha
Метод сжатия : Без потерь
Заголовок : Forced
Язык : Russian
Default : Да
Forced : Да

Когда раздача ведётся путём добавления новых серий, при каждом добавлении создётся новый торрент. Чтобы начать докачку новой серии, пользователям необходимо сделать следующее:
(1) остановить скачивание,
(2) удалить старый торрент у себя из клиента (старые серии удалять не надо),
(3) скачать новый торрент и запустить его у себя в клиенте вместо старого, при этом указать клиенту путь в старую папку, куда и должно происходить скачивание новых серий.
Ваш клиент при этом должен произвести хеширование (проверку) старой папки (если не производит сам - помогите ему сделать это), и будет докачивать только те серии, которых у вас ещё нет. Старые серии при этом не удаляются, а продолжают раздаваться!
Eсли вы уже удалили старые серии, то предотвратить повторную закачку старых серий можно, отжав галочку в соответсвующих местах при запуске нового торрента. По возможности, желательно не удалять старые серии как можно дольше, чтобы релизёр не столько продолжал раздавать старые серии, а смог сконцентрироваться на новых.
pb.wtf



Скачать Ординатор через торрент http://i103.fastpic.ru/big/2018/0118/c7/39145c14c5c611feef19f066c0bf50c7.png Скачать фильм Ординатор через торрент бесплантно в хорошем качестве Описание: Сериал рассказывает о молодом враче с идеалистическими взглядами на жизнь, который начинает работать под началом блестящего и ... 10 10 3
Info! Серебряная раздача, засчитывается только 50% скачанного.
Торрент: Зарегистрирован [2018-05-26 19:06] · скачан: 19 раз
Статус: √ проверено
Размер: 21.1 GB
Как cкачать? Как скачать Ординатор через торрент | qTorrent

% Раздел Тема Автор DL S | L
Зарубежные сериалы [ 6.94 GB ] Ординатор / The Resident / Сезон: 2 / Серии: 1-14 из 22 [2018 WEB-DLRip] [MVO] killermax2013 Скачать
1 | 0
Зарубежные сериалы [ 20.06 GB ] Ординатор / The Resident / Сезон: 1 / Серии: 1-14 из 14 [2018 WEB-DL 720p] [MVO] killermax2013 Скачать
1 | 0
Зарубежные сериалы [ 39.24 GB ] Ординатор / The Resident / Сезон: 1 / Серии: 1-14 из 14 [2018 WEBRip 1080p WEB-DL 1080p] MVO [BaibaKo] bober100 Скачать
1 | 0
Зарубежные сериалы [ 8.41 GB ] Ординатор / The Resident / Сезон: 1 / Серии: 1-14 из 14 [2018 WEBRip WEB-DLRip] MVO [BaibaKo] bober100 Скачать
1 | 0
Зарубежные сериалы [ 18.55 GB ] Ординатор / The Resident / Сезон: 1 / Серии: 1-14 из 14 [2018 WEBRip 720p] MVO [Jaskier] bober100 Скачать
1 | 0
Зарубежные сериалы [ 56.21 GB ] Ординатор / The Resident / Сезон: 1 / Серия: 1-14 из 14 [2018 WEBRip 1080p] [MVO] killermax2013 Скачать
1 | 0
Зарубежные сериалы [ 7.75 GB ] Ординатор / The Resident / Сезон: 1 / Серия: 1-14 из 14 [2018 WEBRip] [MVO] killermax2013 Скачать
1 | 0

28-11-2019 20:33  

Отключить всю рекламу на сайте

    Дорогой пользователь! Огромная просьба, поблагодарите релизера, оцените раздачу и оставьте свои комментарий, если Вы скачали Ординатор через торрент бесплатно! Внесите свою лепту в развитие PiratBit!
    Комментировать посты могут только пользователи прошедшие не сложную регистрацию
    Показать сообщения:    

    Ординатор через торрент
    Скачать бесплатно Ординатор
    Ординатор скачать торрент
    Ординатор смотреть онлайн
    Cкачать фильм Ординатор бесплатно
    Ординатор скачать торрент в хорошем качестве
    Ординатор смотреть онлайн бесплатно в хорошем качестве


    Вы не можете начинать темы
    Вы не можете отвечать на сообщения
    Вы не можете редактировать свои сообщения
    Вы не можете удалять свои сообщения
    Вы не можете голосовать в опросах
    Вы не можете прикреплять файлы к сообщениям
    Вы можете скачивать файлы