2 сезон

iTunes

1 сезон

1

iTunes

iTunes

iTunes

1 сезон

RePack

30

ИГРА 18+

pack

ВАЖНО

!!Акция!!

Alien_RageХит недели

RePack

MK11
pack

Забери бонус

RePack

jed

!!Акция!!

Alien_Rage

RePack

fifa19

RePack

Assassins Creed: Odyssey

RePack

NEED FOR SPEED™ PAYBACK

4 сезон

9 сезон

Бесстыжие 9 сезон

Все сериалы

все сериалы на PB.wtf

RePack

FAR CRY 5
  

Престиж / The Prestige (Кристофер Нолан) [2006, фантастика, триллер, драма, детектив, BDRip 1080p by msltel] DUB, 2 x DVO, 4 x AVO pb.wtf

Престиж через торрент pb.wtf

Размер: 21.66 GB | Добавлен: 2 года 9 мес. назад | Торрент скачан:56 раз
Скачать  

21-01-2018 07:15 Престиж Скачать торрент  

Название: Престиж
Оригинальное название: The Prestige
Год выпуска: 2006
Страна: США, Великобритания
Жанр: фантастика, триллер, драма, детектив
Продолжительность: 02:10:29
Перевод: дублированный, профессиональный двухголосый, авторский

Режиссер: Кристофер Нолан
В ролях: Хью Джекман, Кристиан Бэйл, Майкл Кейн, Пайпер Перабо, Ребекка Холл, Скарлетт Йоханссон, Саманта Мэхурин, Дэвид Боуи, Энди Серкис, Дэниэл Дэвис, Джим Пиддок, Кристофер Ним, Марк Райан, Роджер Рис, Джэми Харрис, Монти Стюарт, Рон Перкинс, Рикки Джей, Энтони Де Марко, Чао Ли Чи, Грегори Хэмпфри, Джон Б. Край, Уильям Морган Шеппард, Шон Хоус, Джули Санфорд

О фильме: Роберт и Альфред — фокусники-иллюзионисты, которые на рубеже XIX и XX веков соперничали друг с другом в Лондоне. С годами их дружеская конкуренция на профессиональной почве перерастает в настоящую войну. Они готовы на всё, чтобы выведать друг у друга секреты фантастических трюков и сорвать их исполнение. Непримиримая вражда, вспыхнувшая между ними, начинает угрожать жизни окружающих их людей... Фильм снят по мотивам романа Кристофера Приста «Престиж» (The Prestige, 1995).



Качество: BDRip 1080p
Формат: MKV
Видео: MPEG-4 AVC, 13.4 Mбит/с, 1920x820
Аудио 1: русский, AC3, 640 kbps, 6 ch [дублированный, Blu-Ray CEE]
Аудио 2: русский, AC3, 640 kbps, 6 ch [закадровый двухголосый]
Аудио 3: русский, DTS, 1509 kbps, 6 ch [закадровый двухголосый, Пётр Гланц и Инна Королёва]
Аудио 4: русский, DTS, 1509 kbps, 6 ch [авторский, Сергей Визгунов]
Аудио 5: русский, DTS, 1509 kbps, 6 ch [авторский, Андрей Гаврилов]
Аудио 6: русский, DTS, 1509 kbps, 6 ch [авторский, Владимир Королёв]
Аудио 7: русский, DTS, 1509 kbps, 6 ch [авторский, Юрий Сербин]
Аудио 8: английский, DTS, 1509 kbps, 6 ch, 48 kHz [оригинал]
Субтитры 1: русские
Субтитры 2: английские
Неименованные главы/чаптеры.
Общее
Уникальный идентификатор : 197781301598797673375389550933435603980 (0x94CB4B09D71C923F9B34DC2E7475DC0C)
Полное имя : D:\Video\Престиж.2006.BDRip.1080p by msltel.mkv
Формат : Matroska
Версия формата : Version 4 / Version 2
Размер файла : 21,7 Гбайт
Продолжительность : 2 ч. 10 м.
Общий поток : 23,8 Мбит/сек
Название фильма : Rip by msltel
Дата кодирования : UTC 2018-01-20 11:04:36
Программа кодирования : mkvmerge v8.2.0 ('World of Adventure') 64bit
Библиотека кодирования : libebml v1.3.1 + libmatroska v1.4.2

Видео
Идентификатор : 1
Формат : AVC
Формат/Информация : Advanced Video Codec
Профиль формата : High@L4.1
Настройки формата : CABAC / 4 Ref Frames
Параметр CABAC формата : Да
Параметр RefFrames формата : 4 кадра
Идентификатор кодека : V_MPEG4/ISO/AVC
Продолжительность : 2 ч. 10 м.
Битрейт : 13,4 Мбит/сек
Ширина : 1920 пикселей
Высота : 820 пикселей
Соотношение сторон : 2,35:1
Режим частоты кадров : Постоянный
Частота кадров : 23,976 (24000/1001) кадра/сек
Цветовое пространство : YUV
Субдискретизация насыщенности : 4:2:0
Битовая глубина : 8 бит
Тип развёртки : Прогрессивная
Бит/(Пиксели*Кадры) : 0.356
Размер потока : 12,3 Гбайт (57%)
Библиотека кодирования : x264 core 146 r2538 121396c
Настройки программы : cabac=1 / ref=4 / deblock=1:-3:-2 / analyse=0x3:0x113 / me=umh / subme=11 / psy=1 / psy_rd=1.00:0.15 / mixed_ref=1 / me_range=32 / chroma_me=1 / trellis=2 / 8x8dct=1 / cqm=0 / deadzone=21,11 / fast_pskip=0 / chroma_qp_offset=-3 / threads=6 / lookahead_threads=1 / sliced_threads=0 / nr=0 / decimate=1 / interlaced=0 / bluray_compat=0 / constrained_intra=0 / bframes=10 / b_pyramid=2 / b_adapt=2 / b_bias=0 / direct=1 / weightb=1 / open_gop=0 / weightp=2 / keyint=230 / keyint_min=23 / scenecut=40 / intra_refresh=0 / rc_lookahead=40 / rc=crf / mbtree=0 / crf=18.0 / qcomp=0.60 / qpmin=0 / qpmax=69 / qpstep=4 / vbv_maxrate=62500 / vbv_bufsize=78125 / crf_max=0.0 / nal_hrd=none / filler=0 / ip_ratio=1.40 / pb_ratio=1.30 / aq=1:1.00
Язык : English
Default : Да
Forced : Нет

Аудио #1
Идентификатор : 2
Формат : AC-3
Формат/Информация : Audio Coding 3
Идентификатор кодека : A_AC3
Продолжительность : 2 ч. 10 м.
Вид битрейта : Постоянный
Битрейт : 640 Кбит/сек
Каналы : 6 каналов
Расположение каналов : Front: L C R, Side: L R, LFE
Частота : 48,0 КГц
Частота кадров : 31,250 кадров/сек (1536 SPF)
Битовая глубина : 16 бит
Метод сжатия : С потерями
Размер потока : 597 Мбайт (3%)
Заголовок : DUB.Blu-Ray CEE
Язык : Russian
ServiceKind/String : Complete Main
Default : Да
Forced : Нет

Аудио #2
Идентификатор : 3
Формат : AC-3
Формат/Информация : Audio Coding 3
Идентификатор кодека : A_AC3
Продолжительность : 2 ч. 6 м.
Вид битрейта : Постоянный
Битрейт : 640 Кбит/сек
Каналы : 6 каналов
Расположение каналов : Front: L C R, Side: L R, LFE
Частота : 48,0 КГц
Частота кадров : 31,250 кадров/сек (1536 SPF)
Битовая глубина : 16 бит
Метод сжатия : С потерями
Размер потока : 580 Мбайт (3%)
Заголовок : DVO
Язык : Russian
ServiceKind/String : Complete Main
Default : Нет
Forced : Нет

Аудио #3
Идентификатор : 4
Формат : DTS
Формат/Информация : Digital Theater Systems
Идентификатор кодека : A_DTS
Продолжительность : 2 ч. 10 м.
Вид битрейта : Постоянный
Битрейт : 1509 Кбит/сек
Каналы : 6 каналов
Расположение каналов : Front: L C R, Side: L R, LFE
Частота : 48,0 КГц
Частота кадров : 93,750 кадра/сек (512 SPF)
Битовая глубина : 24 бит
Метод сжатия : С потерями
Размер потока : 1,38 Гбайт (6%)
Заголовок : Пётр Гланц и Инна Королёва
Язык : Russian
Default : Нет
Forced : Нет

Аудио #4
Идентификатор : 5
Формат : DTS
Формат/Информация : Digital Theater Systems
Идентификатор кодека : A_DTS
Продолжительность : 2 ч. 10 м.
Вид битрейта : Постоянный
Битрейт : 1509 Кбит/сек
Каналы : 6 каналов
Расположение каналов : Front: L C R, Side: L R, LFE
Частота : 48,0 КГц
Частота кадров : 93,750 кадра/сек (512 SPF)
Битовая глубина : 24 бит
Метод сжатия : С потерями
Размер потока : 1,38 Гбайт (6%)
Заголовок : Сергей Визгунов
Язык : Russian
Default : Нет
Forced : Нет

Аудио #5
Идентификатор : 6
Формат : DTS
Формат/Информация : Digital Theater Systems
Идентификатор кодека : A_DTS
Продолжительность : 2 ч. 10 м.
Вид битрейта : Постоянный
Битрейт : 1509 Кбит/сек
Каналы : 6 каналов
Расположение каналов : Front: L C R, Side: L R, LFE
Частота : 48,0 КГц
Частота кадров : 93,750 кадра/сек (512 SPF)
Битовая глубина : 24 бит
Метод сжатия : С потерями
Размер потока : 1,38 Гбайт (6%)
Заголовок : Андрей Гаврилов
Язык : Russian
Default : Нет
Forced : Нет

Аудио #6
Идентификатор : 7
Формат : DTS
Формат/Информация : Digital Theater Systems
Идентификатор кодека : A_DTS
Продолжительность : 2 ч. 10 м.
Вид битрейта : Постоянный
Битрейт : 1509 Кбит/сек
Каналы : 6 каналов
Расположение каналов : Front: L C R, Side: L R, LFE
Частота : 48,0 КГц
Частота кадров : 93,750 кадра/сек (512 SPF)
Битовая глубина : 24 бит
Метод сжатия : С потерями
Размер потока : 1,38 Гбайт (6%)
Заголовок : Владимир Королёв
Язык : Russian
Default : Нет
Forced : Нет

Аудио #7
Идентификатор : 8
Формат : DTS
Формат/Информация : Digital Theater Systems
Идентификатор кодека : A_DTS
Продолжительность : 2 ч. 10 м.
Вид битрейта : Постоянный
Битрейт : 1509 Кбит/сек
Каналы : 6 каналов
Расположение каналов : Front: L C R, Side: L R, LFE
Частота : 48,0 КГц
Частота кадров : 93,750 кадра/сек (512 SPF)
Битовая глубина : 24 бит
Метод сжатия : С потерями
Размер потока : 1,38 Гбайт (6%)
Заголовок : Юрий Сербин
Язык : Russian
Default : Нет
Forced : Нет

Аудио #8
Идентификатор : 9
Формат : DTS
Формат/Информация : Digital Theater Systems
Идентификатор кодека : A_DTS
Продолжительность : 2 ч. 10 м.
Вид битрейта : Постоянный
Битрейт : 1509 Кбит/сек
Каналы : 6 каналов
Расположение каналов : Front: L C R, Side: L R, LFE
Частота : 48,0 КГц
Частота кадров : 93,750 кадра/сек (512 SPF)
Битовая глубина : 24 бит
Метод сжатия : С потерями
Размер потока : 1,38 Гбайт (6%)
Заголовок : original
Язык : English
Default : Нет
Forced : Нет

Текст #1
Идентификатор : 10
Формат : UTF-8
Идентификатор кодека : S_TEXT/UTF8
Идентификатор кодека/Информация : UTF-8 Plain Text
Продолжительность : 2 ч. 4 м.
Битрейт : 112 бит/сек
ElementCount : 1580
Размер потока : 102 Кбайт (0%)
Заголовок : русские
Язык : Russian
Default : Нет
Forced : Нет

Текст #2
Идентификатор : 11
Формат : UTF-8
Идентификатор кодека : S_TEXT/UTF8
Идентификатор кодека/Информация : UTF-8 Plain Text
Продолжительность : 2 ч. 4 м.
Битрейт : 61 бит/сек
ElementCount : 1574
Размер потока : 55,9 Кбайт (0%)
Заголовок : английские
Язык : English
Default : Нет
Forced : Нет

Меню
00:00:00.000 : en:Chapter 01
00:03:30.585 : en:Chapter 02
00:07:45.756 : en:Chapter 03
00:11:40.574 : en:Chapter 04
00:16:03.963 : en:Chapter 05
00:23:19.481 : en:Chapter 06
00:27:20.180 : en:Chapter 07
00:33:59.746 : en:Chapter 08
00:38:46.615 : en:Chapter 09
00:44:34.004 : en:Chapter 10
00:49:27.839 : en:Chapter 11
00:53:28.455 : en:Chapter 12
00:59:49.711 : en:Chapter 13
01:04:01.128 : en:Chapter 14
01:08:48.332 : en:Chapter 15
01:12:57.831 : en:Chapter 16
01:17:46.912 : en:Chapter 17
01:23:16.324 : en:Chapter 18
01:35:49.535 : en:Chapter 19
01:40:19.263 : en:Chapter 20
01:45:17.185 : en:Chapter 21
01:49:03.161 : en:Chapter 22
01:55:06.566 : en:Chapter 23
02:04:59.450 : en:Chapter 24
pb.wtf



Скачать Престиж через торрент https://b.radikal.ru/b03/1801/cf/e9ba6ecf535b.jpg Скачать фильм Престиж через торрент бесплантно в хорошем качестве О фильме: Роберт и Альфред — фокусники-иллюзионисты, которые на рубеже XIX и XX веков соперничали друг с другом в Лондоне. С годами их ... 10 10 8
Info! Золотая раздача, скачанное не засчитывается.
Торрент: Зарегистрирован [2018-01-21 07:15] · скачан: 56 раз
Статус: √ проверено
Размер: 21.66 GB
Как cкачать? Как скачать Престиж через торрент | qTorrent

% Раздел Тема Автор DL S | L
Фильмы [HD 720p, 1080p] (Хороший звук DUB, MVO) [ 7.88 GB ] Престиж / The Prestige [2006 BDRip 720p by msltel] DUB 2 x DVO 4 x AVO msltel Скачать
2 | 0

28-11-2019 20:33  

Отключить всю рекламу на сайте

21-01-2018 07:56 Престиж Скачать торрент  

Чот не помню этот фильм,с удовольствием посмотрю, спасиб.pb.wtf



21-01-2018 10:43 Престиж Скачать торрент  

тоже пальнуpb.wtf



    Дорогой пользователь! Огромная просьба, поблагодарите релизера, оцените раздачу и оставьте свои комментарий, если Вы скачали Престиж через торрент бесплатно! Внесите свою лепту в развитие PiratBit!
    Комментировать посты могут только пользователи прошедшие не сложную регистрацию
    Показать сообщения:    

    Престиж через торрент
    Скачать бесплатно Престиж
    Престиж скачать торрент
    Престиж смотреть онлайн
    Cкачать фильм Престиж бесплатно
    Престиж скачать торрент в хорошем качестве
    Престиж смотреть онлайн бесплатно в хорошем качестве


    Вы не можете начинать темы
    Вы не можете отвечать на сообщения
    Вы не можете редактировать свои сообщения
    Вы не можете удалять свои сообщения
    Вы не можете голосовать в опросах
    Вы не можете прикреплять файлы к сообщениям
    Вы можете скачивать файлы