Мега распродажа FORZA HORIZON 4 ULTIMATE+ВСЕ DLC+ОНЛАЙН всего за 499р. 349 руб. (супер цена). Внимание количество ограничено!!!

iTunes

1+1

iTunes

мы

iTunes

1

1 сезон

Чернобыль

1 сезон

Ральф против интернета

Лицензия

ПШазам

8 сезон

Игра престолов

Лицензия

30
pack

ВАЖНО

!!Акция!!

Alien_RageХит недели

RePack

Resident Evil 21

ИГРА 18+

pack

RePack

Metro:Exodus

!!Акция!!

Alien_Rage

RePack

fifa19

RePack

Assassins Creed: Odyssey

RePack

NEED FOR SPEED™ PAYBACK

3 сезон

9 сезон

Бесстыжие 9 сезон

Все сериалы

все сериалы на PB.wtf

RePack

FAR CRY 5
Ребята, катастрофически не хватает 2730р. для оплаты серверов за ИЮНЬ (всвязи с блокировками трафик упал в 3 раза), 1-2р., выручайте.
  

Гарри и Тонто / Harry and Tonto (Пол Мазурски) [1974 г., драма, мелодрама, комедия, приключения, HDRip] MVO pb.wtf

Гарри и Тонто через торрент pb.wtf

Размер: 1.45 GB | Добавлен: 1 год 5 мес. назад | Торрент скачан:8 раз
Скачать  

21-01-2018 12:25 Гарри и Тонто Скачать торрент  

Гарри и Тонто / Harry and Tonto
Год выпуска: 1974
Страна: США
Жанр: драма, мелодрама, комедия, приключения
Продолжительность: 01:55:23
Перевод: Профессиональный (многоголосый)

Режиссер: Пол Мазурски

rating

В ролях: Арт Карни, Рене Энрикес, Херберт Бергхоф, Майкл МакКлири, Эвон Лонг, Рашель Новикофф, Филип Брунс, Клифф Де Янг, Джош Мостел, Долли Йон, Сибил Боуэн, Джо Мэдден, Бетт Ховард, Патриция Фэй, Луис Гасс, Клинт Янг, Клифф Нортон, Мелани Мэйрон, Майкл Батлер, Летишиа Тул, Грегг Харрис

Описание: Гарри — пожилой нью-йоркский вдовец, которого выгнали из его квартиры, поскольку дом предназначен на снос. Для дальнейшей борьбы за выживание у него нет ни сил, ни средств, а из друзей остался лишь верный кот Тонто. С этим единственным другом и отправляется он в путешествие в никуда по дорогам Америки.

Качество: HDRip
Формат: AVI
Видео: XviD, 1598 Кбит/с, 720x384, 23.976 Кадр/с
Аудио: AC3, 2 ch, 192 Кбит/с
Релиз от: Koenig
скриншот   скриншот   скриншот   скриншот   скриншот   скриншот  

Общее
Полное имя : Harry.and.Tonto.1974.HDRip.avi
Формат : AVI
Формат/Информация : Audio Video Interleave
Размер файла : 1,45 Гбайт
Продолжительность : 1 ч. 55 м.
Общий поток : 1799 Кбит/сек
Программа кодирования : VirtualDubMod 1.5.10.2 (build 2540/release)
Библиотека кодирования : VirtualDubMod build 2540/release

Видео
Идентификатор : 0
Формат : MPEG-4 Visual
Профиль формата : Advanced Simple@L5
Параметр BVOP формата : 1
Параметр QPel формата : Нет
Параметр GMC формата : Без точки перехода
Параметр матрицы формата : Выборочная
Идентификатор кодека : XVID
Идентификатор кодека/Подсказка : XviD
Продолжительность : 1 ч. 55 м.
Битрейт : 1598 Кбит/сек
Ширина : 720 пикселей
Высота : 384 пикселя
Соотношение сторон : 1,85:1
Частота кадров : 23,976 (24000/1001) кадра/сек
Цветовое пространство : YUV
Субдискретизация насыщенности : 4:2:0
Битовая глубина : 8 бит
Тип развёртки : Прогрессивная
Метод сжатия : С потерями
Бит/(Пиксели*Кадры) : 0.241
Размер потока : 1,29 Гбайт (89%)
Библиотека кодирования : XviD 65

Аудио
Идентификатор : 1
Формат : AC-3
Формат/Информация : Audio Coding 3
Параметр Endianness формата : Big
Идентификатор кодека : 2000
Продолжительность : 1 ч. 55 м.
Вид битрейта : Постоянный
Битрейт : 192 Кбит/сек
Каналы : 2 канала
Расположение каналов : Front: L R
Частота : 48,0 КГц
Частота кадров : 31,250 кадров/сек (1536 spf)
Битовая глубина : 16 бит
Метод сжатия : С потерями
Размер потока : 158 Мбайт (11%)
Выравнивание : Разделение по промежуткам
Продолжительность промежутка : 42 мс. (1,00 видеокадр)
Время предзагрузки промежутка : 500 мс.
ServiceKind/String : Complete Main

pb.wtf



Скачать Гарри и Тонто через торрент http://img12.lostpic.net/2018/01/21/a117f6ff28923e4da9cb288827d39841.jpg Скачать фильм Гарри и Тонто через торрент бесплантно в хорошем качестве Описание: Гарри — пожилой нью-йоркский вдовец, которого выгнали из его квартиры, поскольку дом предназначен на снос. Для дальнейшей борьбы ... 5 10 1
Торрент: Зарегистрирован [2018-01-21 12:25] · скачан: 8 раз
Статус: √ проверено
Размер: 1.45 GB
Как cкачать? Как скачать Гарри и Тонто через торрент | qTorrent


>> Регистрируемся здесь <<






Отзывы и комментарии о схеме читаем и пишем здесь: ---> Отзывы и комментарии о схеме

Новые благодарочки в телеграм довольных пользователей:
скриншот   скриншот   скриншот   скриншот   скриншот
    Дорогой пользователь! Огромная просьба, поблагодарите релизера, оцените раздачу и оставьте свои комментарий, если Вы скачали Гарри и Тонто через торрент бесплатно! Внесите свою лепту в развитие PiratBit!
    Комментировать посты могут только пользователи прошедшие не сложную регистрацию
    Показать сообщения:    

    Гарри и Тонто через торрент
    Скачать бесплатно Гарри и Тонто
    Гарри и Тонто скачать торрент
    Гарри и Тонто смотреть онлайн
    Cкачать фильм Гарри и Тонто бесплатно
    Гарри и Тонто скачать торрент в хорошем качестве
    Гарри и Тонто смотреть онлайн бесплатно в хорошем качестве


    Вы не можете начинать темы
    Вы не можете отвечать на сообщения
    Вы не можете редактировать свои сообщения
    Вы не можете удалять свои сообщения
    Вы не можете голосовать в опросах
    Вы не можете прикреплять файлы к сообщениям
    Вы можете скачивать файлы