1 сезон

iTunes

iTunes

1

Line

MVO

iTunes

13

1 сезон

RePack

30

Deluxe

pack

Лицензия

ВАЖНО

ИГРА 18+

pack

RePack

MK11

RePack

jed

RePack

fifa19

RePack

RDR2

RePack

NEED FOR SPEED™ PAYBACK

4 сезон

9 сезон

Бесстыжие 9 сезон

Все сериалы

все сериалы на PB.wtf

RePack

FAR CRY 5

Anonymous, добрый вечер, мы катастрофически не успеваем собрать деньги на оплату серверов, помогите нам пожалуйста 5,10,15р., для нас важна любая помощь . В качестве благодарности мы отключим Вам всю рекламу на сайте (укажите свой ник в строку Ваше имя)!

×
  
Magnet ссылка

Королева бензоколонки (Николай Литус, Алексей Мишурин) [1962, комедия, HDTVRip 720p] [60FPS] pb.wtf

Королева бензоколонки через торрент pb.wtf

Размер: 4.2 GB | Добавлен: 3 года 6 мес. назад | Торрент скачан:82 раза
Скачать  

21-01-2018 16:19 Королева бензоколонки Скачать торрент  

Королева бензоколонки

Год выпуска: 1962
Страна: СССР
Жанр: комедия
Продолжительность: 01:12:56
Перевод: Оригинальный
Режиссер: Николай Литус, Алексей Мишурин
В ролях:


Надежда Румянцева (Людмила), Андрей Сова (Панас), Алексей Кожевников (Тарас), Нонна Копержинская (Рогнеда), Юрий Белов (Славка), Владимир Белокуров (Медведь), Сергей Блинников (Бабий), Виктор Мягкий (Борщ), Евгения Опалова (преподаватель), Виктор Халатов (продавец), Павел Винник (автоинспектор), Александр Хвыля (пассажир)
Описание:
Мечта очаровательной девушки Людмилы Добрыйвечер - танцевать в балете на льду. Но... она не проходит по конкурсу, и ей приходится искать работу. После многих забавных приключений, она устраивается заправщицей на бензоколонку. Однако приключения на этом не заканчиваются...
Мировая премьера: 18 февраля 1963
rating
Релиз от:
Качество: HDTVRip 720p [60FPS]
Формат: MKV
Видео кодек: AVC
Аудио кодек: AC3
Видео: AVC, 986x720 (4:3), 7798 kbps, 50 fps, 0,220 bpp
Аудио №1: AC3 / 2.0 / 48 kHz / 256 kbps / Русский
Аудио №2: AC3 / 1 / 48 kHz / 192 kbps / Русский[Mono]
General
Unique ID : 151167532196947123806148058779564547137 (0x71B9CEC49F604157F7D19CCF208A9C41)
Complete name : D:\video\Раздачи\Королева бензоколонки.byWSM[60FPS].mkv
Format : Matroska
Format version : Version 4 / Version 2
File size : 4.20 GiB
Duration : 1 h 12 min
Overall bit rate : 8 250 kb/s
Encoded date : UTC 2018-01-21 12:52:56
Writing application : mkvmerge v20.0.0 ('I Am The Sun') 64-bit
Writing library : libebml v1.3.5 + libmatroska v1.4.8

Video
ID : 1
Format : AVC
Format/Info : Advanced Video Codec
Format profile : High@L4.1
Format settings, CABAC : Yes
Format settings, ReFrames : 10 frames
Codec ID : V_MPEG4/ISO/AVC
Duration : 1 h 12 min
Bit rate : 7 799 kb/s
Width : 986 pixels
Height : 720 pixels
Display aspect ratio : 4:3
Frame rate mode : Constant
Frame rate : 50.000 FPS
Color space : YUV
Chroma subsampling : 4:2:0
Bit depth : 8 bits
Scan type : Progressive
Bits/(Pixel*Frame) : 0.220
Stream size : 3.97 GiB (95%)
Writing library : x264 core 148 r2638 7599210
Encoding settings : cabac=1 / ref=11 / deblock=1:-3:-3 / analyse=0x3:0x133 / me=umh / subme=10 / psy=1 / psy_rd=1.00:0.00 / mixed_ref=1 / me_range=32 / chroma_me=1 / trellis=2 / 8x8dct=1 / cqm=0 / deadzone=21,11 / fast_pskip=1 / chroma_qp_offset=-2 / threads=6 / lookahead_threads=1 / sliced_threads=0 / nr=0 / decimate=1 / interlaced=0 / bluray_compat=0 / constrained_intra=0 / bframes=5 / b_pyramid=1 / b_adapt=2 / b_bias=0 / direct=3 / weightb=0 / open_gop=0 / weightp=2 / keyint=500 / keyint_min=50 / scenecut=40 / intra_refresh=0 / rc_lookahead=40 / rc=crf / mbtree=1 / crf=14.0 / qcomp=0.60 / qpmin=10 / qpmax=69 / qpstep=4 / vbv_maxrate=25000 / vbv_bufsize=6000 / crf_max=0.0 / nal_hrd=none / filler=0 / ip_ratio=1.40 / aq=1:1.00
Default : Yes
Forced : No

Audio #1
ID : 2
Format : AC-3
Format/Info : Audio Coding 3
Mode extension : CM (complete main)
Format settings, Endianness : Big
Codec ID : A_AC3
Duration : 1 h 12 min
Bit rate mode : Constant
Bit rate : 256 kb/s
Channel(s) : 2 channels
Channel positions : Front: L R
Sampling rate : 48.0 kHz
Frame rate : 31.250 FPS (1536 spf)
Compression mode : Lossy
Stream size : 134 MiB (3%)
Language : Russian
Default : Yes
Forced : No

Audio #2
ID : 3
Format : AC-3
Format/Info : Audio Coding 3
Mode extension : CM (complete main)
Format settings, Endianness : Big
Codec ID : A_AC3
Duration : 1 h 12 min
Bit rate mode : Constant
Bit rate : 192 kb/s
Channel(s) : 1 channel
Channel positions : Front: C
Sampling rate : 48.0 kHz
Frame rate : 31.250 FPS (1536 spf)
Compression mode : Lossy
Stream size : 100 MiB (2%)
Title : mono
Language : Russian
Default : No
Forced : No
pb.wtf



Скачать Королева бензоколонки через торрент http://lostpix.com/img/2018-01/21/gdgpn9xy1ci020q7ikhlbagps.png Скачать фильм Королева бензоколонки через торрент бесплантно в хорошем качестве Описание: Мечта очаровательной девушки Людмилы Добрыйвечер - танцевать в балете на льду. Но... она не проходит по конкурсу, и ей приходится ... 10 10 14
Info! Золотая раздача, скачанное не засчитывается.
Торрент: Зарегистрирован [2018-01-21 16:19] · скачан: 82 раз
Статус: √ проверено
Размер: 4.2 GB
Как cкачать? Как скачать Королева бензоколонки через торрент | UTorrent

% Раздел Тема Автор DL S | L
Кино СССР [ 1.09 GB ] Королева бензоколонки [1962 СССР HDTVRip-AVC от AVP Studio] AVP Studio Скачать
1 | 0
Кино СССР [ 2.18 GB ] Королева бензоколонки [1962 СССР HDTVRip 720p от AVP Studio] AVP Studio Скачать
1 | 0
Кино СССР [ 1.09 GB ] Королева бензоколонки [1962 СССР HDTVRip от AVP Studio] AVP Studio Скачать
1 | 0
Кино СССР [ 1.11 GB ] Королева бензоколонки [1962 DVDRip-AVC] smaster Скачать
1 | 0
Наши фильмы (HD, WEB-DL 720p, 1080p) [ 5.36 GB ] Королева бензоколонки [1962 HDTV 1080p] Бумер Скачать
1 | 0
Кино СССР [ 1.37 GB ] Королева бензоколонки [1962 HDTVRip-AVC] Реставрация Azazel Скачать
1 | 0
Кино СССР [ 1.37 GB ] Королева бензоколонки [1962 DVDRip] Оригинал wekotila Скачать
1 | 0

28-11-2019 20:33  

Отключить всю рекламу на сайте


21-01-2018 19:12 Королева бензоколонки Скачать торрент  

Также не забываем оставлять отзывы)pb.wtf



21-01-2018 21:36 Королева бензоколонки Скачать торрент  

Это золотая классика кино!!!pb.wtf



22-01-2018 13:46 Королева бензоколонки Скачать торрент  

А отзывы могут быть только положительные... Спс за раздачу. Клянусь не сваливать с раздачи во веки веков. pb.wtf



24-02-2018 11:34 Королева бензоколонки Скачать торрент  

Вопросы: в тех данных 50 fps, в заголовке 60 fps. Почему?
Лого Первого канал обрезан справа, картинка урезана?pb.wtf



24-02-2018 12:04 Королева бензоколонки Скачать торрент  

WorldSM писал(а):

ref=11 ... fast_pskip=1 ... keyint=500 / keyint_min=50 ... mbtree=1 ...

Автор можете скачать почему именно так?
Модераторы АУ!?pb.wtf



17-01-2019 19:46 Королева бензоколонки Скачать торрент  

WorldSM, вернись на раздачу! 7% неделю не докачать!pb.wtf



    Дорогой пользователь! Огромная просьба, поблагодарите релизера, оцените раздачу и оставьте свои комментарий, если Вы скачали Королева бензоколонки через торрент бесплатно! Внесите свою лепту в развитие PiratBit!
    Комментировать посты могут только пользователи прошедшие не сложную регистрацию
    Показать сообщения:    

    Королева бензоколонки через торрент
    Скачать бесплатно Королева бензоколонки
    Королева бензоколонки скачать торрент
    Королева бензоколонки смотреть онлайн
    Cкачать фильм Королева бензоколонки бесплатно
    Королева бензоколонки скачать торрент в хорошем качестве
    Королева бензоколонки смотреть онлайн бесплатно в хорошем качестве


    Вы не можете начинать темы
    Вы не можете отвечать на сообщения
    Вы не можете редактировать свои сообщения
    Вы не можете удалять свои сообщения
    Вы не можете голосовать в опросах
    Вы не можете прикреплять файлы к сообщениям
    Вы можете скачивать файлы