2 сезон

iTunes

1 сезон

1

iTunes

iTunes

iTunes

1 сезон

RePack

30

ИГРА 18+

pack

ВАЖНО

!!Акция!!

Alien_RageХит недели

RePack

MK11
pack

Забери бонус

RePack

jed

!!Акция!!

Alien_Rage

RePack

fifa19

RePack

Assassins Creed: Odyssey

RePack

NEED FOR SPEED™ PAYBACK

4 сезон

9 сезон

Бесстыжие 9 сезон

Все сериалы

все сериалы на PB.wtf

RePack

FAR CRY 5
  

Стань легендой! Бигфут Младший / The Son of Bigfoot (Жереми Дегрусон, Бен Стассен) [2017 г., мультфильм, фэнтези, комедия, семейный, HDRip, Дубляж "BD RUS"] pb.wtf

Стань легендой! Бигфут Младший через торрент pb.wtf

Размер: 1.46 GB | Добавлен: 2 года 9 мес. назад | Торрент скачан:52 раза
Скачать  

21-01-2018 17:38 Стань легендой! Бигфут Младший Скачать торрент  

Стань легендой! Бигфут Младший / The Son of Bigfoot
Год выпуска: 2017
Страна: Франция, Бельгия / nWave Pictures, StudioCanal, Belga Productions
Жанр: мультфильм, фэнтези, комедия, семейный
Продолжительность: 01:31:15
Перевод: Дубляж (BD RUS)

Режиссер: Жереми Дегрусон, Бен Стассен

rating

В ролях: Синда Адамс, Боб Барлен, Кэллан Брункер, Джои Камен, Дэвид Эпштейн, Кристофер Л. Парсон, Джо Томас

Описание: Обычный подросток по имени Адам отправляется на поиски своего давно пропавшего отца и попадает в приключение мифических масштабов. Его мир переворачивается вверх дном, когда оказывается, что в нем течет кровь последних легендарных хранителей леса — бигфутов. Теперь ему открыты такие способности как суперскорость, живительное прикосновение и возможность понимать язык животных.

Качество: HDRip
Формат: AVI
Видео кодек: XviD
Аудио кодек: AC3
Видео: 720x304 (2.37:1), 24.000 fps, XviD build 50 ~1839 kbps avg, 0.35 bit/pixel
Аудио: 48 kHz, AC3 Dolby Digital, 3/2 (L,C,R,l,r) + LFE ch, ~448 kbps
скриншот   скриншот   скриншот   скриншот   скриншот   скриншот   скриншот   скриншот  

Общее
Полное имя : F:\ФИЛЬМЫ\Стань легендой! Бигфут Младший.2017.HDRip.avi
Формат : AVI
Формат/Информация : Audio Video Interleave
Размер файла : 1,46 Гбайт
Продолжительность : 1 ч. 31 м.
Общий поток : 2297 Кбит/сек
Программа кодирования : VirtualDubMod 1.5.10.3 | www.virtualdub-fr.org || (build 2550/release)
Библиотека кодирования : VirtualDubMod build 2550/release

Видео
Идентификатор : 0
Формат : MPEG-4 Visual
Профиль формата : Advanced Simple@L5
Настройки формата : BVOP1
Параметр BVOP формата : 1
Параметр QPel формата : Нет
Параметр GMC формата : Без точки перехода
Параметр матрицы формата : Default (MPEG)
Идентификатор кодека : XVID
Идентификатор кодека/Подсказка : XviD
Продолжительность : 1 ч. 31 м.
Битрейт : 1839 Кбит/сек
Ширина : 720 пикселей
Высота : 304 пикселя
Соотношение сторон : 2,35:1
Частота кадров : 24,000 кадра/сек
Цветовое пространство : YUV
Субдискретизация насыщенности : 4:2:0
Битовая глубина : 8 бит
Тип развёртки : Прогрессивная
Метод сжатия : С потерями
Бит/(Пиксели*Кадры) : 0.350
Размер потока : 1,17 Гбайт (80%)
Библиотека кодирования : XviD 1.2.1 (UTC 2008-12-04)

Аудио
Идентификатор : 1
Формат : AC-3
Формат/Информация : Audio Coding 3
Идентификатор кодека : 2000
Продолжительность : 1 ч. 31 м.
Вид битрейта : Постоянный
Битрейт : 448 Кбит/сек
Каналы : 6 каналов
Расположение каналов : Front: L C R, Side: L R, LFE
Частота : 48,0 КГц
Частота кадров : 31,250 кадров/сек (1536 SPF)
Битовая глубина : 16 бит
Метод сжатия : С потерями
Размер потока : 292 Мбайт (20%)
Выравнивание : Разделение по промежуткам
Продолжительность промежутка : 42 мс. (1,00 видеокадр)
Время предзагрузки промежутка : 500 мс.
ServiceKind/String : Complete Main

pb.wtf



Скачать Стань легендой! Бигфут Младший через торрент http://pic1.kartinco.top/images/11/u18l2.jpg Скачать фильм Стань легендой! Бигфут Младший через торрент бесплантно в хорошем качестве Описание: Обычный подросток по имени Адам отправляется на поиски своего давно пропавшего отца и попадает в мифических ... 10 10 1
Торрент: Зарегистрирован [2018-01-21 17:38] · скачан: 52 раз
Статус: √ проверено
Размер: 1.46 GB
Как cкачать? Как скачать Стань легендой! Бигфут Младший через торрент | qTorrent

% Раздел Тема Автор DL S | L
3D Мультфильмы [ 7.88 GB ] Стань легендой! Бигфут Младший в 3Д / The Son of Bigfoot 3D [2017 Мультфильм BDrip 1080p] OverUnder / Вертикальная стереопара serega768 Скачать
1 | 0
Иностранные мультфильмы [ 747 MB ] Стань легендой! Бигфут Младший / The Son of Bigfoot [2017 мультфильм BDRip-AVC] sokol_ok Скачать
2 | 0
Иностранные мультфильмы [ 1.46 GB ] Стань легендой! Бигфут Младший / The Son of Bigfoot [2017 мультфильм BDRip] - [] Twi7ter Скачать
1 | 0
Иностранные мультфильмы [ 2.18 GB ] Стань легендой! Бигфут Младший / The Son of Bigfoot [2017 мультфильм BDRip-AVC] sokol_ok Скачать
2 | 0
Иностранные мультфильмы [ 1.44 GB ] Стань легендой! Бигфут Младший / The Son of Bigfoot [2017 мультфильм BDRip-AVC] sokol_ok Скачать
2 | 0
Зарубежные Мультфильмы (BDRip 1080p, 720p, Blu-ray, BD-Remux) [ 8.81 GB ] Стань легендой! Бигфут Младший / The Son of Bigfoot [2017 Мультфильм BDRip 1080p] bober100 Скачать
1 | 0
Иностранные мультфильмы [ 1.98 GB ] Стань легендой! Бигфут Младший / The Son of Bigfoot [2017 мультфильм BDRip-AVC] [Rus Transfer ] - ExKinoRay Enigma2010 Скачать
1 | 0

28-11-2019 20:33  

Отключить всю рекламу на сайте

    Дорогой пользователь! Огромная просьба, поблагодарите релизера, оцените раздачу и оставьте свои комментарий, если Вы скачали Стань легендой! Бигфут Младший через торрент бесплатно! Внесите свою лепту в развитие PiratBit!
    Комментировать посты могут только пользователи прошедшие не сложную регистрацию
    Показать сообщения:    

    Стань легендой! Бигфут Младший через торрент
    Скачать бесплатно Стань легендой! Бигфут Младший
    Стань легендой! Бигфут Младший скачать торрент
    Стань легендой! Бигфут Младший смотреть онлайн
    Cкачать фильм Стань легендой! Бигфут Младший бесплатно
    Стань легендой! Бигфут Младший скачать торрент в хорошем качестве
    Стань легендой! Бигфут Младший смотреть онлайн бесплатно в хорошем качестве


    Вы не можете начинать темы
    Вы не можете отвечать на сообщения
    Вы не можете редактировать свои сообщения
    Вы не можете удалять свои сообщения
    Вы не можете голосовать в опросах
    Вы не можете прикреплять файлы к сообщениям
    Вы можете скачивать файлы