Ссылка на приватное зеркало нашего сайта всего за 1$. Внимание количество ограничено!!!

2 сезон

iTunes

1 сезон

1

2 сезон

2 сезон

iTunes

1 сезон

RePack

30

Ultimate

ВАЖНО

ИГРА 18+

pack

RePack

MK11
pack

Забери бонус

RePack

jed

!!Акция!!

Alien_Rage

RePack

fifa19

RePack

Assassins Creed: Odyssey

RePack

NEED FOR SPEED™ PAYBACK

4 сезон

9 сезон

Бесстыжие 9 сезон

Все сериалы

все сериалы на PB.wtf

RePack

FAR CRY 5
  

Падающая вода / Falling Water / Сезон: 2 / Серии: 1-10 из 10 (Джек Бендер, Гай Ферленд, Хуан Карлос Фреснадильо) [2017, Фантастика, триллер, драма, детектив, WEB-DLRip] MVO [Jaskier] pb.wtf

Падающая вода через торрент pb.wtf

Размер: 4.83 GB | Добавлен: 2 года 8 мес. назад | Торрент скачан:4 раза
Скачать  

21-01-2018 22:26 Падающая вода Скачать торрент  

Падающая вода / Falling WaterГод выпуска: 2017
Страна: США
Жанр: Фантастика, триллер, драма, детектив
Продолжительность: ~ 00:44:00
Перевод: Профессиональный (многоголосый) | Jaskier (без цензуры)
Субтитры: отсутствуют

Режиссер: Джек Бендер, Гай Ферленд, Хуан Карлос Фреснадильо

rating

В ролях:

Дэвид Аджала, Лиззи Брошере, Уилл Юн Ли, Анна Вуд, Труди Стайлер, Бен Ван Берген, Джои Озенн, Нандита Чандра

Описание:

Три незнакомца постепенно осознают, что им снятся отдельные фрагменты общего сна. Каждый из них должен выполнить собственный квест — один ищет пропавшую подружку, второй — потерянного ребенка, третий — лекарство, которое выведет из кататонического ступора его мать, а тем временем все ключи к квестам находятся в их общем сне. Чем глубже они погружаются, тем сильнее осознают, что их истинная миссия намного важнее, чем личные поиски, и что образы, возникшие в их общем сне, возможно, содержат главную подсказку о судьбе мира.

Качество: WEB-DLRip
Формат: AVI

Видео: XviD, ~ 1400 kbps, 720x400, 23.976 fps
Аудио#1: MP3, 48,0 КГц, 2 ch, 128 kbps - RUS
Аудио#2: MP3, 48,0 КГц, 2 ch, 128 kbps - ENG

скриншот  скриншот  скриншот  

Общее
Полное имя : D:\Falling Water. Season 2 (WEB-DL l 400p l Jaskier)\Falling.Water.S02E01.400p.Jaskier.avi
Формат : AVI
Формат/Информация : Audio Video Interleave
Размер файла : 501 Мбайт
Продолжительность : 41 м. 55 с.
Общий поток : 1670 Кбит/сек
Программа кодирования : VirtualDubMod 1.5.10.3 | www.virtualdub-fr.org || (build 2550/release)
Библиотека кодирования : VirtualDubMod build 2550/release

Видео
Идентификатор : 0
Формат : MPEG-4 Visual
Профиль формата : Advanced Simple@L5
Параметр BVOP формата : 2
Параметр QPel формата : Нет
Параметр GMC формата : Без точки перехода
Параметр матрицы формата : Выборочная
Идентификатор кодека : XVID
Идентификатор кодека/Подсказка : XviD
Продолжительность : 41 м. 55 с.
Битрейт : 1437 Кбит/сек
Ширина : 720 пикселей
Высота : 400 пикселей
Соотношение сторон : 16:9
Частота кадров : 23,976 (23976/1000) кадра/сек
Цветовое пространство : YUV
Субдискретизация насыщенности : 4:2:0
Битовая глубина : 8 бит
Тип развёртки : Прогрессивная
Метод сжатия : С потерями
Бит/(Пиксели*Кадры) : 0.194
Размер потока : 401 Мбайт (80%)
Библиотека кодирования : XviD 73

Аудио #1
Идентификатор : 1
Формат : MPEG Audio
Версия формата : Version 1
Профиль формата : Layer 3
Режим : Joint stereo
Расширение режима : MS Stereo
Идентификатор кодека : 55
Идентификатор кодека/Подсказка : MP3
Продолжительность : 41 м. 55 с.
Вид битрейта : Постоянный
Битрейт : 128 Кбит/сек
Каналы : 2 канала
Частота : 48,0 КГц
Метод сжатия : С потерями
Размер потока : 38,4 Мбайт (8%)
Выравнивание : Соединение по промежуткам

Аудио #2
Идентификатор : 2
Формат : MPEG Audio
Версия формата : Version 1
Профиль формата : Layer 3
Режим : Joint stereo
Расширение режима : MS Stereo
Идентификатор кодека : 55
Идентификатор кодека/Подсказка : MP3
Продолжительность : 41 м. 55 с.
Вид битрейта : Постоянный
Битрейт : 128 Кбит/сек
Каналы : 2 канала
Частота : 48,0 КГц
Метод сжатия : С потерями
Размер потока : 38,4 Мбайт (8%)
Выравнивание : Соединение по промежуткам

Когда раздача ведётся путём добавления новых серий, при каждом добавлении создётся новый торрент. Чтобы начать докачку новой серии, пользователям необходимо сделать следующее:
(1) остановить скачивание,
(2) удалить старый торрент у себя из клиента (старые серии удалять не надо),
(3) скачать новый торрент и запустить его у себя в клиенте вместо старого, при этом указать клиенту путь в старую папку, куда и должно происходить скачивание новых серий.
Ваш клиент при этом должен произвести хеширование (проверку) старой папки (если не производит сам - помогите ему сделать это), и будет докачивать только те серии, которых у вас ещё нет. Старые серии при этом не удаляются, а продолжают раздаваться!
Eсли вы уже удалили старые серии, то предотвратить повторную закачку старых серий можно, отжав галочку в соответсвующих местах при запуске нового торрента. По возможности, желательно не удалять старые серии как можно дольше, чтобы релизёр не столько продолжал раздавать старые серии, а смог сконцентрироваться на новых.
pb.wtf



Скачать Падающая вода через торрент http://i99.fastpic.ru/big/2018/0122/62/21f355303b3a716a3c91f8898494ed62.jpg Скачать фильм Падающая вода через торрент бесплантно в хорошем качестве Описание: Три незнакомца постепенно осознают, что им снятся отдельные фрагменты общего сна. Каждый из них должен выполнить собственный ... 10 10 2
Торрент: Зарегистрирован [2018-03-15 20:07] · скачан: 4 раз
Статус: √ проверено
Размер: 4.83 GB
Как cкачать? Как скачать Падающая вода через торрент | qTorrent

% Раздел Тема Автор DL S | L
Зарубежные сериалы [ 18.71 GB ] Падающая вода / Поток сознания / Falling Water / Сезон 2 / Серии 1-10 из 10 [2018 WEB-DLRip 1080p] [MVO] killermax2013 Скачать
1 | 0
Зарубежные сериалы [ 5.02 GB ] Падающая вода / Поток сознания / Falling Water / Сезон 2 / Серии 1-10 из 10 [2018 WEBRip] [MVO] killermax2013 Скачать
1 | 0
Зарубежные сериалы [ 4.04 GB ] Падающая вода / Falling Water / Сезон: 2 / Серии: 1-10 из 10 [2017 HDTVRip] MVO [ColdFilm] bober100 Скачать
1 | 0
Зарубежные сериалы [ 12.19 GB ] Падающая вода / Falling Water / Сезон: 2 / Серии: 1-10 из 10 [2017 HDTVRip 720p] MVO [ColdFilm] bober100 Скачать
1 | 0
Зарубежные сериалы [ 8.8 GB ] Падающая вода / Falling Water / Сезон: 2 / Серии: 1-10 из 10 [2017 WEB-DL 720p] MVO [Jaskier] bober100 Скачать
1 | 0
Зарубежные сериалы [ 4.71 GB ] Падающая вода / Потоки / Falling Water / Сезон: 2 / Серии 1-10 из 10 [2018 WEBRip] MVO [BaibaKo] GEKADOL Скачать
1 | 0


Последний раз редактировалось: bober100 (2018-03-15 20:07), всего редактировалось 4 раз(а)

28-11-2019 20:33  

Отключить всю рекламу на сайте

06-02-2018 20:28 Падающая вода Скачать торрент  

+5pb.wtf



22-02-2018 18:37 Падающая вода Скачать торрент  

+7pb.wtf



11-03-2018 21:23 Падающая вода Скачать торрент  

+9pb.wtf



    Дорогой пользователь! Огромная просьба, поблагодарите релизера, оцените раздачу и оставьте свои комментарий, если Вы скачали Падающая вода через торрент бесплатно! Внесите свою лепту в развитие PiratBit!
    Комментировать посты могут только пользователи прошедшие не сложную регистрацию
    Показать сообщения:    

    Падающая вода через торрент
    Скачать бесплатно Падающая вода
    Падающая вода скачать торрент
    Падающая вода смотреть онлайн
    Cкачать фильм Падающая вода бесплатно
    Падающая вода скачать торрент в хорошем качестве
    Падающая вода смотреть онлайн бесплатно в хорошем качестве


    Вы не можете начинать темы
    Вы не можете отвечать на сообщения
    Вы не можете редактировать свои сообщения
    Вы не можете удалять свои сообщения
    Вы не можете голосовать в опросах
    Вы не можете прикреплять файлы к сообщениям
    Вы можете скачивать файлы