2 сезон

iTunes

1 сезон

1

iTunes

iTunes

iTunes

1 сезон

RePack

30

ИГРА 18+

pack

ВАЖНО

!!Акция!!

Alien_RageХит недели

RePack

MK11
pack

Забери бонус

RePack

jed

!!Акция!!

Alien_Rage

RePack

fifa19

RePack

Assassins Creed: Odyssey

RePack

NEED FOR SPEED™ PAYBACK

4 сезон

9 сезон

Бесстыжие 9 сезон

Все сериалы

все сериалы на PB.wtf

RePack

FAR CRY 5
  

Обет молчания / Acts of Vengeance (Айзек Флорентайн) [2017, Боевик, драма, BDRip 720p] DUB [Tunes] pb.wtf

Обет молчания через торрент pb.wtf

Размер: 5.23 GB | Добавлен: 2 года 9 мес. назад | Торрент скачан:356 раз
Скачать  

22-01-2018 02:19 Обет молчания Скачать торрент  

Обет молчания / Acts of Vengeance Год выпуска: 2017
Страна: Болгария
Жанр: Боевик, драма
Продолжительность: 01:27:20
Перевод: Дублированный | iTunes
Субтитры: Русские (full), английские

Режиссер: Айзек Флорентайн

rating

В ролях:

Антонио Бандерас, Кристина Серафини, Атанас Сребрев, Карл Урбан, Пас Вега, Роберт Форстер, Лиллиэн Бланкеншип, Марк Смит, Дэвид Сакурай, Айзек Флорентайн

Описание:

Главное оружие успешного адвоката Фрэнка ‒ красноречие, благодаря которому он может выиграть любое дело. Но это для него не самое важное: больше всего на свете Фрэнк дорожит своей семьей, женой и дочерью. Однажды неизвестные убивают его родственников, после чего миролюбивый и сверхобщительный адвокат меняется коренным образом. Фрэнк дает обет молчания, чем лишает себя своего главного преимущества и источника заработка. Он начинает много и усердно тренироваться, чтобы разыскать и отомстить тем, кто лишил его семьи.

Качество: BDRip 720p
Формат: MKV

Видео: MPEG-4 AVC, 1280x694, 6680 Kbit/s, 23.976 fps
Аудио#1: 48 kHz, AC3, 5.1, 384 Kbps | Дублированный | iTunes | RUS |скриншот  
Аудио#2: 48 kHz, DTS, 5.1, 1510 Kbps | Оригинал | ENG |


Релиз от:
скриншот   скриншот   скриншот   скриншот   скриншот  

General
Unique ID : 323631732142700589042539119542829971311 (0xF3793452D24472EC51D6FC4AC261F76F)
Complete name : G:VideoSSDActs.Of.Vengeance.2017.BDRip.720p.ExKinoRay.mkv
Format : Matroska
Format version : Version 4 / Version 2
File size : 5.23 GiB
Duration : 1 h 27 min
Overall bit rate : 8 575 kb/s
Movie name : Acts Of Vengeance 2017 from ExKinoRay
Encoded date : UTC 2018-01-21 22:51:07
Writing application : mkvmerge v20.0.0 ('I Am The Sun') 64-bit
Writing library : libebml v1.3.5 + libmatroska v1.4.8

Video
ID : 1
Format : AVC
Format/Info : Advanced Video Codec
Format profile : High@L4.1
Format settings : CABAC / 9 Ref Frames
Format settings, CABAC : Yes
Format settings, ReFrames : 9 frames
Codec ID : V_MPEG4/ISO/AVC
Duration : 1 h 27 min
Bit rate : 6 680 kb/s
Width : 1 280 pixels
Height : 694 pixels
Display aspect ratio : 1.85:1
Frame rate mode : Constant
Frame rate : 23.976 (24000/1001) FPS
Color space : YUV
Chroma subsampling : 4:2:0
Bit depth : 8 bits
Scan type : Progressive
Bits/(Pixel*Frame) : 0.314
Stream size : 4.08 GiB (78%)
Writing library : x264 core 152 r2851+58 429492e t_mod_Custom [8-bit@all X86_64]
Encoding settings : cabac=1 / ref=9 / deblock=1:-3:-3 / analyse=0x3:0x133 / me=umh / subme=10 / psy=1 / fade_compensate=0.00 / psy_rd=1.00:0.00 / mixed_ref=1 / me_range=32 / chroma_me=1 / trellis=2 / 8x8dct=1 / cqm=0 / deadzone=21,11 / fast_pskip=0 / chroma_qp_offset=-2 / threads=22 / lookahead_threads=3 / sliced_threads=0 / nr=0 / decimate=0 / interlaced=0 / bluray_compat=0 / constrained_intra=0 / fgo=0 / bframes=8 / b_pyramid=2 / b_adapt=2 / b_bias=0 / direct=3 / weightb=1 / open_gop=0 / weightp=2 / keyint=250 / keyint_min=23 / scenecut=40 / intra_refresh=0 / rc_lookahead=60 / rc=crf / mbtree=0 / crf=16.0000 / qcomp=0.65 / qpmin=0:0:0 / qpmax=69:69:69 / qpstep=4 / vbv_maxrate=62500 / vbv_bufsize=78125 / crf_max=0.0 / nal_hrd=none / filler=0 / ip_ratio=1.30 / pb_ratio=1.20 / aq=3:0.81 / aq-sensitivity=10.00 / aq-factor=1.00:1.00:1.00 / aq2=0 / aq3=0 / zones=26,929,crf=11/7328,7581,crf=12/32176,33236,crf=12
Language : English
Default : Yes
Forced : No

Audio #1
ID : 2
Format : AC-3
Format/Info : Audio Coding 3
Codec ID : A_AC3
Duration : 1 h 27 min
Bit rate mode : Constant
Bit rate : 384 kb/s
Channel(s) : 6 channels
Channel positions : Front: L C R, Side: L R, LFE
Sampling rate : 48.0 kHz
Frame rate : 31.250 FPS (1536 SPF)
Bit depth : 16 bits
Compression mode : Lossy
Stream size : 240 MiB (4%)
Title : iTunes
Language : Russian
Service kind : Complete Main
Default : Yes
Forced : No

Audio #2
ID : 3
Format : DTS
Format/Info : Digital Theater Systems
Codec ID : A_DTS
Duration : 1 h 27 min
Bit rate mode : Constant
Bit rate : 1 509 kb/s
Channel(s) : 6 channels
Channel positions : Front: L C R, Side: L R, LFE
Sampling rate : 48.0 kHz
Frame rate : 93.750 FPS (512 SPF)
Bit depth : 24 bits
Compression mode : Lossy
Stream size : 943 MiB (18%)
Title : Original
Language : English
Default : No
Forced : No

Text #1
ID : 4
Format : UTF-8
Codec ID : S_TEXT/UTF8
Codec ID/Info : UTF-8 Plain Text
Duration : 1 h 26 min
Bit rate : 46 b/s
Count of elements : 551
Stream size : 29.6 KiB (0%)
Title : Full
Language : Russian
Default : No
Forced : No

Text #2
ID : 5
Format : UTF-8
Codec ID : S_TEXT/UTF8
Codec ID/Info : UTF-8 Plain Text
Duration : 1 h 20 min
Bit rate : 27 b/s
Count of elements : 454
Stream size : 16.4 KiB (0%)
Title : Full
Language : English
Default : No
Forced : No

Menu
00:00:00.000 : en:00:00:00.000
00:05:16.316 : en:00:05:16.316
00:11:00.451 : en:00:11:00.451
00:17:49.318 : en:00:17:49.318
00:24:11.450 : en:00:24:11.450
00:29:07.037 : en:00:29:07.037
00:35:14.612 : en:00:35:14.612
00:39:12.308 : en:00:39:12.308
00:46:29.286 : en:00:46:29.286
00:52:56.590 : en:00:52:56.590
01:00:37.634 : en:01:00:37.634
01:05:28.091 : en:01:05:28.091
01:09:15.902 : en:01:09:15.902
01:13:51.969 : en:01:13:51.969
01:21:32.554 : en:01:21:32.554
01:23:56.031 : en:01:23:56.031

pb.wtf



Скачать Обет молчания через торрент http://img12.lostpic.net/2018/01/22/1ab39a82158f4a421c6555e32c882843.jpg Скачать фильм Обет молчания через торрент бесплантно в хорошем качестве Описание: Главное оружие успешного адвоката Фрэнка ‒ красноречие, благодаря которому он может выиграть любое дело. Но это для него не самое ... 9.9 10 7
Торрент: Зарегистрирован [2018-01-22 02:19] · скачан: 356 раз
Статус: √ проверено
Размер: 5.23 GB
Как cкачать? Как скачать Обет молчания через торрент | qTorrent

% Раздел Тема Автор DL S | L
Фильмы [HD 720p, 1080p] (Хороший звук DUB, MVO) [ 4.73 GB ] Обет молчания / Acts of Vengeance [2017 BDRip 720p] [GER Transfer] DUB + AVO - KORSAR kisa1980 Скачать
2 | 0
Фильмы 2017 [DVDrip, WEB-DLRip, HDrip] (DUB, MVO) [ 1.82 GB ] Обет молчания / Acts of Vengeance [2017 BDRip-AVC] - ExKinoRay Enigma2010 Скачать
1 | 0
Фильмы 2017 [DVDrip, WEB-DLRip, HDrip] (DUB, MVO) [ 1.46 GB ] Обет молчания / Acts of Vengeance [2017 BDRip] - [] Twi7ter Скачать
1 | 0
Фильмы (Blu-ray, BD-Remux, HDDVD) [ 18.65 GB ] Обет молчания / Acts of Vengeance [2017 BD Remux 1080p] DUB [US Transfer] [] bober100 Скачать
1 | 0
Фильмы [HD 720p, 1080p] (Хороший звук DUB, MVO) [ 6.72 GB ] Обет молчания / Acts of Vengeance [2017 BDRip 1080p] DUB [] bober100 Скачать
2 | 0
Фильмы 2017 [DVDrip, WEB-DLRip, HDrip] (DUB, MVO) [ 1.46 GB ] Обет молчания / Acts of Vengeance [2017 BDRip] DUB [ BD RUS] bober100 Скачать
1 | 0
Фильмы 2017 [DVDrip, WEB-DLRip, HDrip] (DUB, MVO) [ 746 MB ] Обет молчания / Acts of Vengeance [2017 HDRip-AVC] DUB [Tunes] bober100 Скачать
1 | 0

28-11-2019 20:33  

Отключить всю рекламу на сайте

    Дорогой пользователь! Огромная просьба, поблагодарите релизера, оцените раздачу и оставьте свои комментарий, если Вы скачали Обет молчания через торрент бесплатно! Внесите свою лепту в развитие PiratBit!
    Комментировать посты могут только пользователи прошедшие не сложную регистрацию
    Показать сообщения:    

    Обет молчания через торрент
    Скачать бесплатно Обет молчания
    Обет молчания скачать торрент
    Обет молчания смотреть онлайн
    Cкачать фильм Обет молчания бесплатно
    Обет молчания скачать торрент в хорошем качестве
    Обет молчания смотреть онлайн бесплатно в хорошем качестве


    Вы не можете начинать темы
    Вы не можете отвечать на сообщения
    Вы не можете редактировать свои сообщения
    Вы не можете удалять свои сообщения
    Вы не можете голосовать в опросах
    Вы не можете прикреплять файлы к сообщениям
    Вы можете скачивать файлы