Ссылка на приватное зеркало всего за 1$. Внимание количество ограничено!!!

OK

1+1

iTunes

мы

OK

1

WEB-DLRip

Джокер

Пифагор

Ведьмак / The Witcher сериал

Лицензия

ПШазам

ОК

Оно 2

iTunes

30
pack

Вам бонус

ВАЖНО

!!Акция!!

Alien_RageХит недели

RePack

Resident Evil 21

ИГРА 18+

pack

RePack

jed

RePack

fifa19

RePack

Assassins Creed: Odyssey

RePack

NEED FOR SPEED™ PAYBACK

4 сезон

9 сезон

Бесстыжие 9 сезон

Все сериалы

все сериалы на PB.wtf

RePack

FAR CRY 5
  

Делириум / Delirium (Джонни Мартин) [2018, ужасы, триллер, WEB-DL 720p] MVO ["Синема УС] pb.wtf

Делириум через торрент pb.wtf

Размер: 2.96 GB | Добавлен: 2 года назад | Торрент скачан:167 раз
Скачать  

22-01-2018 06:51 Делириум Скачать торрент  

Делириум / DeliriumГод выпуска: 2018
Страна: США
Жанр: ужасы, триллер
Продолжительность: 01:25:16
Перевод: Любительский (многоголосый) ["Синема УС]
Субтитры: отсутствуют

Режиссер: Джонни Мартин

rating

В ролях:

Райан Пинкстон, Сет Остин, Елена Санчес, Гриффин Фриман, Йен Бамберг, Тереза Наварро, Мила Бренер, Майк К. Мэннинг, Б.Дж. Митчелл, Линдсэй Бушмен

Описание:

Несколько друзей берут на слабо своего одноклассника - ему надо дойти до крыльца знаменитого дома с привидениям, где в прошлом была убита семья из 13 человек, и принести видео-доказательство. Он не возвращается, и парни решают отправиться за ним, попутно снимая это. На крыльце дома они находят брошенную камеру и теперь им надо зайти внутрь и выяснить, что так напугало их друга и где он теперь.

Качество: WEB-DL 720p
Формат: MKV
Видео кодек: H.264
Аудио кодек: AC3

Видео: 4579 Кбит/с, 1280x716
Аудио#1: Русский, (AC3, 2 ch, 384 Кбит/с)

скриншот   скриншот   скриншот  

Общее
Уникальный идентификатор : 254071555676578149871397276919324346070 (0xBF2466D66E5496FAB9185882D02606D6)
Полное имя : D:\Delirium 2018.P.WEB-DL.72Op_KOSHARA.mkv
Формат : Matroska
Версия формата : Version 2
Размер файла : 2,96 Гбайт
Продолжительность : 1 ч. 25 м.
Режим общего битрейта : Переменный
Общий поток : 4965 Кбит/сек
Дата кодирования : UTC 2018-01-20 03:39:28
Программа кодирования : mkvmerge v8.3.0 ('Over the Horizon') 64bit
Библиотека кодирования : libebml v1.3.1 + libmatroska v1.4.2

Видео
Идентификатор : 1
Формат : AVC
Формат/Информация : Advanced Video Codec
Профиль формата : High@L4.1
Параметр CABAC формата : Да
Параметр ReFrames формата : 9 кадров
Идентификатор кодека : V_MPEG4/ISO/AVC
Продолжительность : 1 ч. 25 м.
Вид битрейта : Переменный
Битрейт : 4579 Кбит/сек
Максимальный битрейт : 5000 Кбит/сек
Ширина : 1280 пикселей
Высота : 716 пикселей
Соотношение сторон : 16:9
Режим частоты кадров : Постоянный
Частота кадров : 23,976 (24000/1001) кадра/сек
Стандарт вещания : Component
Цветовое пространство : YUV
Субдискретизация насыщенности : 4:2:0
Битовая глубина : 8 бит
Тип развёртки : Прогрессивная
Бит/(Пиксели*Кадры) : 0.204
Размер потока : 2,67 Гбайт (90%)
Default : Да
Forced : Нет
Цветовой диапазон : Limited
Основные цвета : BT.709
Характеристики трансфера : BT.709
Коэффициенты матрицы : BT.709

Аудио
Идентификатор : 2
Формат : AC-3
Формат/Информация : Audio Coding 3
Расширение режима : CM (complete main)
Параметр Endianness формата : Big
Идентификатор кодека : A_AC3
Продолжительность : 1 ч. 25 м.
Вид битрейта : Постоянный
Битрейт : 384 Кбит/сек
Каналы : 2 канала
Расположение каналов : Front: L R
Частота : 48,0 КГц
Частота кадров : 31,250 кадров/сек (1536 spf)
Метод сжатия : С потерями
Размер потока : 234 Мбайт (8%)
Default : Да
Forced : Нет

pb.wtf



Скачать Делириум через торрент http://img12.lostpic.net/2018/01/22/e15bb617170412e2eb991e1b0f023d5d.jpg Скачать фильм Делириум через торрент бесплантно в хорошем качестве Описание: Несколько друзей берут на слабо своего одноклассника - ему надо дойти до крыльца знаменитого дома с привидениям, где в прошлом ... 8.5 10 6
Торрент: Зарегистрирован [2018-01-22 06:51] · скачан: 167 раз
Статус: T временная
Размер: 2.96 GB
Как cкачать? Как скачать Делириум через торрент | qTorrent

% Раздел Тема Автор DL S | L
T Фильмы (мультфильмы) cо спонсором показа (Новинки AVI/MKV) [ 1.37 GB ] Делириум / Delirium [2018 WEB-DLRip] MVO ["Синема УС] bober100 Скачать
1 | 0
Зарубежные сериалы [ 595 MB ] Делириум / Delirium / Сезон: 1 / Серия 1 из ?? [ 2014 WEBRip-AVC] MVO GEKADOL Скачать
1 | 0


Последний раз редактировалось: bober100 (2018-02-17 09:04), всего редактировалось 1 раз

28-11-2019 20:33  

Отключить всю рекламу на сайте

22-01-2018 17:18 Делириум Скачать торрент  

Скриншоты - зачОт! Говорящие.pb.wtf



17-02-2018 08:49 Делириум Скачать торрент  

17-02-2018 11:09 Делириум Скачать торрент  

IMDb: 3.30 (130) бодрое начало)pb.wtf



    Дорогой пользователь! Огромная просьба, поблагодарите релизера, оцените раздачу и оставьте свои комментарий, если Вы скачали Делириум через торрент бесплатно! Внесите свою лепту в развитие PiratBit!
    Комментировать посты могут только пользователи прошедшие не сложную регистрацию
    Показать сообщения:    

    Делириум через торрент
    Скачать бесплатно Делириум
    Делириум скачать торрент
    Делириум смотреть онлайн
    Cкачать фильм Делириум бесплатно
    Делириум скачать торрент в хорошем качестве
    Делириум смотреть онлайн бесплатно в хорошем качестве


    Вы не можете начинать темы
    Вы не можете отвечать на сообщения
    Вы не можете редактировать свои сообщения
    Вы не можете удалять свои сообщения
    Вы не можете голосовать в опросах
    Вы не можете прикреплять файлы к сообщениям
    Вы можете скачивать файлы