Ссылка на приватное зеркало нашего сайта всего за 1$. Внимание количество ограничено!!!

2 сезон

iTunes

1 сезон

1

iTunes

iTunes

iTunes

1 сезон

RePack

30

ИГРА 18+

pack

ВАЖНО

!!Акция!!

Alien_RageХит недели

RePack

MK11
pack

Забери бонус

RePack

jed

!!Акция!!

Alien_Rage

RePack

fifa19

RePack

Assassins Creed: Odyssey

RePack

NEED FOR SPEED™ PAYBACK

4 сезон

9 сезон

Бесстыжие 9 сезон

Все сериалы

все сериалы на PB.wtf

RePack

FAR CRY 5
  

Предместье / The 'burbs (Джо Данте) [1989, комедия, детектив, BDRip 1080p by msltel] 2 x MVO, AVO pb.wtf

Предместье через торрент pb.wtf

Размер: 13.76 GB | Добавлен: 2 года 9 мес. назад | Торрент скачан:59 раз
Скачать  

22-01-2018 06:52 Предместье Скачать торрент  

Название: Предместье
Оригинальное название: The 'burbs
Год выпуска: 1989
Страна: США
Жанр: комедия, детектив
Продолжительность: 01:41:26
Перевод: профессиональный многоголосый, авторский

Режиссер: Джо Данте
В ролях: Том Хэнкс, Брюс Дерн, Кэрри Фишер, Рик Дукомман, Кори Фельдман, Уэнди Шаал, Генри Гибсон, Брава Теодор, Кортни Гейнс, Гэйл Гордон

О фильме: Ленивой умиротворённой жизни в предместье, где жил Рэй Питерсон, пришел конец. Рэй наивно хотел расслабиться недельку, флегматично побродить в пижаме и почитать газеты, но не тут-то было. Отдых превращается в непрекращающийся кошмар! В соседнем доме поселились странные люди по фамилии Клопеки, которые ни с кем не общаются и никогда не спят. По ночам из их подвала слышатся странные звуки. В предместье, где каждый знает всю подноготную другого, эти явления - из ряда вон выходящие. Ну а после того, как в один прекрасный день исчезает местный старикан Уолтер, окрестные жители решают, что это дело рук Клопеков! Вооружившись ружьям, мощными биноклями и лопатами население предместья отправляется к зловещему дому для «прояснения» ситуации. И их ждет воистину шокирующее открытие!..



Качество: BDRip 1080p
Формат: MKV
Видео: MPEG-4 AVC, 16 Mбит/с, 1920x1036, 23.976 кадра/сек
Аудио 1: русский, AC3, 192 kbps, 2 ch, 48 kHz [закадровый многоголосый, CTC]
Аудио 2: русский, AC3, 192 kbps, 2 ch, 48 kHz [закадровый многоголосый]
Аудио 3: русский, DTS, 1509 kbps, 2 ch, 48 kHz [авторский, Алексей Михалёв]
Аудио 4: английский, DTS, 1509 kbps, 2 ch, 48 kHz [оригинал]
Субтитры: английские
Неименованные главы/чаптеры.
Общее
Уникальный идентификатор : 213251134201222004174619620888383782777 (0xA06EACAC3F02BA3B9B3AC4BCC9FEFF79)
Полное имя : D:\Video\Предместье.1989.BDRip.1080p by msltel.mkv
Формат : Matroska
Версия формата : Version 4 / Version 2
Размер файла : 13,8 Гбайт
Продолжительность : 1 ч. 41 м.
Общий поток : 19,4 Мбит/сек
Название фильма : Rip by msltel
Дата кодирования : UTC 2018-01-22 02:07:26
Программа кодирования : mkvmerge v8.2.0 ('World of Adventure') 64bit
Библиотека кодирования : libebml v1.3.1 + libmatroska v1.4.2

Видео
Идентификатор : 1
Формат : AVC
Формат/Информация : Advanced Video Codec
Профиль формата : High@L4.1
Настройки формата : CABAC / 4 Ref Frames
Параметр CABAC формата : Да
Параметр RefFrames формата : 4 кадра
Идентификатор кодека : V_MPEG4/ISO/AVC
Продолжительность : 1 ч. 41 м.
Битрейт : 16,0 Мбит/сек
Ширина : 1920 пикселей
Высота : 1036 пикселей
Соотношение сторон : 1,85:1
Режим частоты кадров : Постоянный
Частота кадров : 23,976 (24000/1001) кадра/сек
Цветовое пространство : YUV
Субдискретизация насыщенности : 4:2:0
Битовая глубина : 8 бит
Тип развёртки : Прогрессивная
Бит/(Пиксели*Кадры) : 0.336
Размер потока : 11,3 Гбайт (82%)
Библиотека кодирования : x264 core 146 r2538 121396c
Настройки программы : cabac=1 / ref=4 / deblock=1:-3:-2 / analyse=0x3:0x113 / me=umh / subme=11 / psy=1 / psy_rd=1.00:0.15 / mixed_ref=1 / me_range=32 / chroma_me=1 / trellis=2 / 8x8dct=1 / cqm=0 / deadzone=21,11 / fast_pskip=0 / chroma_qp_offset=-3 / threads=6 / lookahead_threads=1 / sliced_threads=0 / nr=0 / decimate=1 / interlaced=0 / bluray_compat=0 / constrained_intra=0 / bframes=8 / b_pyramid=2 / b_adapt=2 / b_bias=0 / direct=1 / weightb=1 / open_gop=0 / weightp=2 / keyint=230 / keyint_min=23 / scenecut=40 / intra_refresh=0 / rc_lookahead=40 / rc=crf / mbtree=0 / crf=19.5 / qcomp=0.60 / qpmin=0 / qpmax=69 / qpstep=4 / vbv_maxrate=62500 / vbv_bufsize=78125 / crf_max=0.0 / nal_hrd=none / filler=0 / ip_ratio=1.40 / pb_ratio=1.30 / aq=1:1.00
Язык : English
Default : Да
Forced : Нет

Аудио #1
Идентификатор : 2
Формат : AC-3
Формат/Информация : Audio Coding 3
Идентификатор кодека : A_AC3
Продолжительность : 1 ч. 41 м.
Вид битрейта : Постоянный
Битрейт : 192 Кбит/сек
Каналы : 2 канала
Расположение каналов : Front: L R
Частота : 48,0 КГц
Частота кадров : 31,250 кадров/сек (1536 SPF)
Битовая глубина : 16 бит
Метод сжатия : С потерями
Размер потока : 139 Мбайт (1%)
Заголовок : MVO.CTC
Язык : Russian
ServiceKind/String : Complete Main
Default : Да
Forced : Нет

Аудио #2
Идентификатор : 3
Формат : AC-3
Формат/Информация : Audio Coding 3
Идентификатор кодека : A_AC3
Продолжительность : 1 ч. 41 м.
Вид битрейта : Постоянный
Битрейт : 192 Кбит/сек
Каналы : 2 канала
Расположение каналов : Front: L R
Частота : 48,0 КГц
Частота кадров : 31,250 кадров/сек (1536 SPF)
Битовая глубина : 16 бит
Метод сжатия : С потерями
Размер потока : 139 Мбайт (1%)
Заголовок : MVO
Язык : Russian
ServiceKind/String : Complete Main
Default : Нет
Forced : Нет

Аудио #3
Идентификатор : 4
Формат : DTS
Формат/Информация : Digital Theater Systems
Идентификатор кодека : A_DTS
Продолжительность : 1 ч. 41 м.
Вид битрейта : Постоянный
Битрейт : 1509 Кбит/сек
Каналы : 2 канала
Расположение каналов : Front: L R
Частота : 48,0 КГц
Частота кадров : 93,750 кадра/сек (512 SPF)
Битовая глубина : 16 бит
Метод сжатия : С потерями
Размер потока : 1,07 Гбайт (8%)
Заголовок : Алексей Михалёв
Язык : Russian
Default : Нет
Forced : Нет

Аудио #4
Идентификатор : 5
Формат : DTS
Формат/Информация : Digital Theater Systems
Идентификатор кодека : A_DTS
Продолжительность : 1 ч. 41 м.
Вид битрейта : Постоянный
Битрейт : 1509 Кбит/сек
Каналы : 2 канала
Расположение каналов : Front: L R
Частота : 48,0 КГц
Частота кадров : 93,750 кадра/сек (512 SPF)
Битовая глубина : 16 бит
Метод сжатия : С потерями
Размер потока : 1,07 Гбайт (8%)
Заголовок : original
Язык : English
Default : Нет
Forced : Нет

Текст
Идентификатор : 6
Формат : UTF-8
Идентификатор кодека : S_TEXT/UTF8
Идентификатор кодека/Информация : UTF-8 Plain Text
Продолжительность : 1 ч. 35 м.
Битрейт : 68 бит/сек
ElementCount : 1184
Размер потока : 47,8 Кбайт (0%)
Заголовок : английские
Язык : English
Default : Нет
Forced : Нет

Меню
00:00:00.000 : :Chapter 01
00:03:16.527 : :Chapter 02
00:08:43.311 : :Chapter 03
00:12:23.032 : :Chapter 04
00:19:14.442 : :Chapter 05
00:24:30.884 : :Chapter 06
00:32:30.239 : :Chapter 07
00:38:28.972 : :Chapter 08
00:46:54.478 : :Chapter 09
00:51:55.320 : :Chapter 10
01:01:09.372 : :Chapter 11
01:08:28.479 : :Chapter 12
01:19:28.470 : :Chapter 13
01:25:18.404 : :Chapter 14
01:30:26.212 : :Chapter 15
01:37:22.292 : :Chapter 16
01:41:25.621 : :Chapter 17
pb.wtf



Скачать Предместье через торрент https://a.radikal.ru/a22/1801/c9/1198cc630944.jpg Скачать фильм Предместье через торрент бесплантно в хорошем качестве О фильме: Ленивой умиротворённой жизни в предместье, где жил Рэй Питерсон, пришел конец. Рэй наивно хотел расслабиться недельку, ... 7.8 10 4
Info! Золотая раздача, скачанное не засчитывается.
Торрент: Зарегистрирован [2018-01-22 06:52] · скачан: 59 раз
Статус: √ проверено
Размер: 13.76 GB
Как cкачать? Как скачать Предместье через торрент | qTorrent

28-11-2019 20:33  

Отключить всю рекламу на сайте

22-01-2018 11:42 Предместье Скачать торрент  

классный потешный фильм несмотря на год выпуска еще многим новым комедиям даст форуpb.wtf



    Дорогой пользователь! Огромная просьба, поблагодарите релизера, оцените раздачу и оставьте свои комментарий, если Вы скачали Предместье через торрент бесплатно! Внесите свою лепту в развитие PiratBit!
    Комментировать посты могут только пользователи прошедшие не сложную регистрацию
    Показать сообщения:    

    Предместье через торрент
    Скачать бесплатно Предместье
    Предместье скачать торрент
    Предместье смотреть онлайн
    Cкачать фильм Предместье бесплатно
    Предместье скачать торрент в хорошем качестве
    Предместье смотреть онлайн бесплатно в хорошем качестве


    Вы не можете начинать темы
    Вы не можете отвечать на сообщения
    Вы не можете редактировать свои сообщения
    Вы не можете удалять свои сообщения
    Вы не можете голосовать в опросах
    Вы не можете прикреплять файлы к сообщениям
    Вы можете скачивать файлы