новый адрес пиратбит piratbit
Мега распродажа FORZA HORIZON 4 ULTIMATE+ВСЕ DLC+ОНЛАЙН всего за 499р. 349 руб. (супер цена). Внимание количество ограничено!!!

iTunes

1+1

iTunes

мы

iTunes

1

iTunes

Чернобыль

iTunes

Ральф против интернета

Лицензия

ПШазам

Лицензия

Игра престолов

Лицензия

30
pack

ВАЖНО

!!Акция!!

Alien_RageХит недели

RePack

Resident Evil 21

ИГРА 18+

pack

RePack

Metro:Exodus

!!Акция!!

Alien_Rage

RePack

fifa19

RePack

Assassins Creed: Odyssey

RePack

NEED FOR SPEED™ PAYBACK

3 сезон

9 сезон

Бесстыжие 9 сезон

Все сериалы

все сериалы на PB.wtf

RePack

FAR CRY 5
Ребята, катастрофически не хватает 1900р. для оплаты серверов за Октябрь (всвязи с блокировками трафик упал в 3 раза), 1-2р., выручайте.
  

Олекса Довбуш (Виктор Иванов) [1959, СССР, история, SATRip от AVP Studio] pb.wtf

Олекса Довбуш через торрент pb.wtf

Размер: 1.09 GB | Добавлен: 1 год 9 мес. назад | Торрент скачан:18 раз
Скачать  

22-01-2018 09:45 Олекса Довбуш Скачать торрент  

Олекса Довбуш
Страна: СССР
Производство: К/ст им. Довженко

Жанр: история
Год выпуска: 1959
Продолжительность: 01:15:25

Перевод: Не требуется
Cубтитры: нет
Оригинальная аудиодорожка: русский

Режиссер: Виктор Иванов

В ролях:
Афанасий Кочетков, Наталья Наум, Олег Борисов, Григорий Тесля, Николай Муравьёв (II), Семён Лихогоденко, Ярослав Чуперчук, Александр Короткевич, Миша Чернов, Марк Перцовский, Надежда Чередниченко, Дмитрий Милютенко, Ярослав Геляс, Владислав Болеславский, Юрий Лавров...
Об актёрах подробней

Описание:
XVIII век. Легендарный гуцульский атаман Олекса Довбуш (Афанасий Кочетков), глава опришков (повстанцев), ведет борьбу в Карпатах за свободу своей Родины от польских и венгерских захватчиков. Изо всех боёв Олекса выходит невредимым. Тогда паны решили хитростью заманить атамана в ловушку. Схватили его возлюбленную Маричку, заковали в цепи и посадили в темницу. Переодетый Довбуш явился во вражескую крепость, чтобы взглянуть на Маричку. Тут и схватили атамана. Но налетели гуцулы, отбили Довбуша, освободили Маричку...

Исходник: DVB
Качество видео: SATRip
Формат видео: AVI

Видео: 704х528 (4:3), 25 fps, XviD ~ 1868 kbps avg, 0.201 bit/pixel
Аудио: 48 kHz, Dolby Digital AC3 2.0, 192 kbps

Раздача от:
Общее
Полное имя : Oleksa.Dovbush.1959.SATRip_[New-team]_by_AVP_Studio.avi
Формат : AVI
Формат/Информация : Audio Video Interleave
Размер файла : 1,09 Гбайт
Продолжительность : 1 ч. 15 м.
Общий поток : 2070 Кбит/сек
Программа кодирования : VirtualDubMod 1.5.10.3 | www.virtualdub-fr.org || (build 2550/release)
Библиотека кодирования : VirtualDubMod build 2550/release

Видео
Идентификатор : 0
Формат : MPEG-4 Visual
Профиль формата : Advanced Simple@L5
Настройки формата : BVOP1 / Custom Matrix
Параметр BVOP формата : 1
Параметр QPel формата : Нет
Параметр GMC формата : Без точки перехода
Параметр матрицы формата : Выборочная
Идентификатор кодека : XVID
Идентификатор кодека/Подсказка : XviD
Продолжительность : 1 ч. 15 м.
Битрейт : 1868 Кбит/сек
Ширина : 704 пикселя
Высота : 528 пикселей
Соотношение сторон : 4:3
Частота кадров : 25,000 кадров/сек
Цветовое пространство : YUV
Субдискретизация насыщенности : 4:2:0
Битовая глубина : 8 бит
Тип развёртки : Прогрессивная
Метод сжатия : С потерями
Бит/(Пиксели*Кадры) : 0.201
Размер потока : 1008 Мбайт (90%)
Библиотека кодирования : XviD 73

Аудио
Идентификатор : 1
Формат : AC-3
Формат/Информация : Audio Coding 3
Идентификатор кодека : 2000
Продолжительность : 1 ч. 15 м.
Вид битрейта : Постоянный
Битрейт : 192 Кбит/сек
Каналы : 2 канала
Расположение каналов : Front: L R
Частота : 48,0 КГц
Частота кадров : 31,250 кадров/сек (1536 SPF)
Битовая глубина : 16 бит
Метод сжатия : С потерями
Размер потока : 104 Мбайт (9%)
Выравнивание : Разделение по промежуткам
Продолжительность промежутка : 40 мс. (1,00 видеокадр)
Время предзагрузки промежутка : 500 мс
pb.wtf



Скачать Олекса Довбуш через торрент http://i102.fastpic.ru/big/2018/0122/8b/e638c3a9a7532b9656d8d16c42e3f08b.png Скачать фильм Олекса Довбуш через торрент бесплантно в хорошем качестве Описание:XVIII век. Легендарный гуцульский атаман Олекса Довбуш (Афанасий Кочетков), глава опришков (повстанцев), ведет борьбу в Карпатах ... 5 10 1
Info! Золотая раздача, скачанное не засчитывается.
Торрент: Зарегистрирован [2018-01-22 09:45] · скачан: 18 раз
Статус: √ проверено
Размер: 1.09 GB
Как cкачать? Как скачать Олекса Довбуш через торрент | qTorrent

% Раздел Тема Автор DL S | L
Кино СССР [ 1.09 GB ] Олекса Довбуш [1959 СССР история SATRip-AVC от AVP Studio] AVP Studio Скачать
1 | 0


>> Регистрируемся здесь <<






Отзывы и комментарии о схеме читаем и пишем здесь: ---> Отзывы и комментарии о схеме

Новые благодарочки в телеграм довольных пользователей:
скриншот   скриншот   скриншот   скриншот   скриншот
    Дорогой пользователь! Огромная просьба, поблагодарите релизера, оцените раздачу и оставьте свои комментарий, если Вы скачали Олекса Довбуш через торрент бесплатно! Внесите свою лепту в развитие PiratBit!
    Комментировать посты могут только пользователи прошедшие не сложную регистрацию
    Показать сообщения:    

    Олекса Довбуш через торрент
    Скачать бесплатно Олекса Довбуш
    Олекса Довбуш скачать торрент
    Олекса Довбуш смотреть онлайн
    Cкачать фильм Олекса Довбуш бесплатно
    Олекса Довбуш скачать торрент в хорошем качестве
    Олекса Довбуш смотреть онлайн бесплатно в хорошем качестве


    Вы не можете начинать темы
    Вы не можете отвечать на сообщения
    Вы не можете редактировать свои сообщения
    Вы не можете удалять свои сообщения
    Вы не можете голосовать в опросах
    Вы не можете прикреплять файлы к сообщениям
    Вы можете скачивать файлы